<?xml version="1.0" standalone="no"?>
<!DOCTYPE svg PUBLIC "-//W3C//DTD SVG 1.1//EN" "http://www.w3.org/Graphics/SVG/1.1/DTD/svg11.dtd">
<svg xmlns="http://www.w3.org/2000/svg">
<defs >
<font id="PTSansNarrow" horiz-adv-x="448" ><font-face
    font-family="PT Sans Narrow"
    units-per-em="1000"
    panose-1="2 11 7 6 2 2 3 2 2 4"
    ascent="1018"
    descent="-276"
    alphabetic="0" />
<glyph unicode=" " glyph-name="space" horiz-adv-x="205" />
<glyph unicode="!" glyph-name="exclam" horiz-adv-x="251" d="M83 700H206V371L182 208H107L83 371V700ZM72 65Q72 102 91 121T143 140Q178 140 197 121T216 65Q216 29 197 9T143 -11Q110 -11 91 9T72 65Z" />
<glyph unicode="&quot;" glyph-name="quotedbl" horiz-adv-x="351" d="M73 700H176L145 484H73V700ZM207 700H310L279 484H207V700Z" />
<glyph unicode="#" glyph-name="numbersign" horiz-adv-x="478" d="M242 205H173L143 51H46L76 205H15L36 300H94L116 410H56L77 505H134L163 649H261L232 505H301L330 649H427L398 505H457L435 410H380L358 300H416L394 205H340L310 51H212L242 205ZM192 300H261L282
410H213L192 300Z" />
<glyph unicode="$" glyph-name="dollar" horiz-adv-x="478" d="M194 -13Q146 -11 112 -2T58 21L91 128Q106 117 132 108T194 95V315Q168 330 143 348T99 390T67 447T54 525Q54 603 92 648T194 708V800H289V712Q324 710 351 703T402 683L369 579Q354 587 334 593T289
603V406Q315 390 340 372T386 328T420 271T433 196Q433 110 394 60T289 -6V-100H194V-13ZM248 96Q280 102 296 125T312 183Q312 217 294 239T248 281V96ZM236 605Q200 601 187 580T173 533Q173 502 191 481T236 440V605Z" />
<glyph unicode="%" glyph-name="percent" horiz-adv-x="720" d="M41 542Q41 588 52 620T83 672T130 702T191 712Q224 712 251 704T299 675T330 623T342 542Q342 494 331 462T299 409T252 381T191 372Q158 372 131 380T83 409T52 461T41 542ZM147 542Q147 494 157
475T191 455Q203 455 211 458T225 472T233 499T236 542Q236 593 225 611T191 629Q168 629 158 611T147 542ZM389 171Q389 217 400 249T431 301T478 331T539 341Q572 341 599 333T647 304T678 252T690 171Q690 123 679 91T647 38T600 10T539 1Q506 1 479 9T431 38T400
90T389 171ZM495 171Q495 123 505 104T539 84Q551 84 559 87T573 101T581 128T584 171Q584 222 573 240T539 258Q516 258 506 240T495 171ZM575 714L645 656L151 -14L80 45L575 714Z" />
<glyph unicode="&amp;" glyph-name="ampersand" horiz-adv-x="671" d="M70 194Q70 232 80 266T110 330T154 385T209 431Q188 464 175 499T161 572Q161 597 169 622T195 668T241 701T311 714Q350 714 378 704T423 676T449 635T457 587Q457 545 432 501T350 414Q375
367 403 320T467 228Q486 253 499 287T523 359L612 318Q607 300 598 277T578 232T556 189T535 154Q560 125 581 108T624 77L563 -14Q536 -1 511 20T461 69Q431 35 388 11T279 -14Q234 -14 196 -1T129 39T86 105T70 194ZM392 148Q352 201 320 251T264 350Q229 315
209 282T189 203Q189 152 217 124T292 95Q324 95 351 111T392 148ZM280 566Q280 522 309 476Q338 501 351 523T364 566Q364 589 354 603T321 618Q301 618 291 604T280 566Z" />
<glyph unicode="&apos;" glyph-name="quotesingle" horiz-adv-x="217" d="M73 700H176L145 484H73V700Z" />
<glyph unicode="(" glyph-name="parenleft" horiz-adv-x="278" d="M186 -220Q148 -172 122 -115T80 3T56 125T48 243Q48 298 55 359T79 481T122 602T188 712L268 667Q241 620 222 568T191 460T173 350T167 243Q167 195 173 140T191 30T222 -78T269 -172L186 -220Z" />
<glyph unicode=")" glyph-name="parenright" horiz-adv-x="278" d="M92 712Q130 664 156 607T198 489T222 367T230 249Q230 194 223 133T199 11T156 -110T90 -220L9 -174Q39 -124 58 -71T89 36T106 144T111 249Q111 297 105 352T86 463T54 571T9 666L92 712Z" />
<glyph unicode="*" glyph-name="asterisk" horiz-adv-x="323" d="M123 724L147 681L160 625L171 677L197 724L256 690L229 641L187 601L242 616H294V546H244L192 562L237 517L259 477L199 442L175 485L159 546L149 491L123 444L63 479L90 527L129 561L82 546H29V617H83L133
601L88 642L63 689L123 724Z" />
<glyph unicode="+" glyph-name="plus" horiz-adv-x="444" d="M38 393H167V539H277V393H406V287H277V140H167V287H38V393Z" />
<glyph unicode="," glyph-name="comma" horiz-adv-x="216" d="M33 65Q33 99 53 118T103 138Q141 138 161 111T182 36Q182 -8 170 -40T139 -93T101 -128T65 -147L28 -99Q51 -87 69 -61T89 -7Q68 -8 51 9T33 65Z" />
<glyph unicode="-" glyph-name="hyphen" horiz-adv-x="298" d="M45 344H253V230H45V344Z" />
<glyph unicode="." glyph-name="period" horiz-adv-x="212" d="M34 65Q34 102 53 121T105 140Q140 140 159 121T178 65Q178 29 159 9T105 -11Q72 -11 53 9T34 65Z" />
<glyph unicode="/" glyph-name="slash" horiz-adv-x="349" d="M276 712L367 677L74 -140L-18 -105L276 712Z" />
<glyph unicode="0" glyph-name="zero" horiz-adv-x="478" d="M35 351Q35 449 48 518T88 630T152 694T239 714Q291 714 329 694T393 631T431 518T444 351Q444 252 430 183T390 70T326 6T239 -14Q187 -14 149 6T85 71T48 185T35 351ZM154 351Q154 217 174 155T240
92Q262 92 278 106T305 151T320 231T325 351Q325 484 306 546T239 608Q216 608 200 594T174 549T159 469T154 351Z" />
<glyph unicode="1" glyph-name="one" horiz-adv-x="478" d="M87 106H201V499L214 567L173 508L107 457L52 524L245 712H315V106H427V0H87V106Z" />
<glyph unicode="2" glyph-name="two" horiz-adv-x="478" d="M402 532Q402 480 387 426T349 319T297 220T242 137L198 96V91L258 106H413V0H62V69Q83 95 107 128T156 199T204 277T244 358T272 438T281 511Q283 553 263 579T200 605Q175 605 149 594T105 566L59
653Q92 681 134 697T233 714Q269 714 300 703T353 668T389 611T402 532Z" />
<glyph unicode="3" glyph-name="three" horiz-adv-x="478" d="M200 92Q249 92 274 125T300 209Q300 322 188 322H129V390L228 558L276 603L210 594H73V700H393V629L277 440L240 413V408L277 414Q305 412 331 399T376 362T407 302T419 217Q419 158 403 115T358
43T291 0T208 -14Q171 -14 130 -6T65 17L97 117Q118 106 143 99T200 92Z" />
<glyph unicode="4" glyph-name="four" horiz-adv-x="478" d="M465 195H377V0H264V195H17V269L273 705H377V297H465V195ZM264 452L275 542H271L241 461L162 327L122 289L173 297H264V452Z" />
<glyph unicode="5" glyph-name="five" horiz-adv-x="478" d="M183 95Q237 95 265 130T293 220Q293 283 260 311T165 339L100 335V700H391V584H202V441L235 445Q316 442 364 385T412 225Q412 166 395 121T349 46T278 1T189 -14Q153 -14 117 -7T57 13L88 114Q125
95 183 95Z" />
<glyph unicode="6" glyph-name="six" horiz-adv-x="478" d="M438 217Q438 164 424 121T384 48T323 2T245 -14Q201 -14 164 1T100 49T58 131T43 251Q43 353 67 433T133 572T228 665T341 714L371 617Q332 607 298 585T237 532T192 462T164 378Q181 402 207 417T271
432Q307 432 337 419T390 379T425 312T438 217ZM323 210Q323 271 303 298T240 326Q210 326 189 309T159 269Q158 258 158 247T158 224Q158 198 163 175T178 133T204 103T242 92Q278 92 300 122T323 210Z" />
<glyph unicode="7" glyph-name="seven" horiz-adv-x="478" d="M88 0L277 547L313 596L263 586H52V700H431V662L204 0H88Z" />
<glyph unicode="8" glyph-name="eight" horiz-adv-x="478" d="M50 168Q50 204 58 232T80 283T111 324T149 357Q110 388 88 428T65 529Q65 614 112 664T243 714Q319 714 366 670T413 545Q413 486 391 445T328 369Q378 334 403 290T428 179Q428 134 414 98T374 37T313
-1T237 -14Q195 -14 161 -2T102 34T64 91T50 168ZM313 179Q313 204 305 224T284 259T254 288T221 313Q186 286 173 255T159 191Q159 149 180 121T239 92Q273 92 293 113T313 179ZM179 527Q179 504 185 487T203 455T228 430T259 408Q282 435 293 461T305 522Q305
563 287 585T242 608Q209 608 194 584T179 527Z" />
<glyph unicode="9" glyph-name="nine" horiz-adv-x="478" d="M37 481Q37 587 87 650T233 714Q326 714 381 648T437 450Q437 334 412 250T345 109T248 23T134 -14L106 86Q196 104 246 164T310 311Q291 286 269 276T212 266Q181 266 150 278T93 317T53 384T37 481ZM152
488Q152 431 176 402T239 372Q268 372 288 382T319 412Q321 423 321 435T322 458Q322 489 317 516T301 564T273 596T232 608Q194 608 173 576T152 488Z" />
<glyph unicode=":" glyph-name="colon" horiz-adv-x="251" d="M77 427Q77 464 96 483T148 502Q183 502 202 483T221 427Q221 391 202 371T148 351Q115 351 96 371T77 427ZM77 65Q77 102 96 121T148 140Q183 140 202 121T221 65Q221 29 202 9T148 -11Q115 -11 96 9T77 65Z" />
<glyph unicode=";" glyph-name="semicolon" horiz-adv-x="251" d="M72 65Q72 99 92 118T142 138Q180 138 200 111T221 36Q221 -8 209 -40T178 -93T140 -128T104 -147L67 -99Q90 -87 108 -61T128 -7Q107 -8 90 9T72 65ZM73 427Q73 464 92 483T144 502Q179 502 198
483T217 427Q217 391 198 371T144 351Q111 351 92 371T73 427Z" />
<glyph unicode="&lt;" glyph-name="less" horiz-adv-x="444" d="M35 285V355L346 577L406 496L220 357L145 322L219 291L410 154L350 73L35 285Z" />
<glyph unicode="=" glyph-name="equal" horiz-adv-x="444" d="M38 489H406V383H38V489ZM38 554H406V448H38V554Z" />
<glyph unicode="&gt;" glyph-name="greater" horiz-adv-x="444" d="M409 365V295L100 75L38 155L225 293L299 329L225 359L34 497L96 576L409 365Z" />
<glyph unicode="?" glyph-name="question" horiz-adv-x="382" d="M113 208Q109 254 117 288T139 349T171 397T205 438T231 481T242 532Q242 567 226 587T171 608Q145 608 116 598T66 569L19 659Q50 682 92 698T194 714Q274 714 319 671T365 548Q365 501 354 469T326
412T290 367T254 325T226 275T214 208H113ZM97 65Q97 102 116 121T168 140Q203 140 222 121T241 65Q241 29 222 9T168 -11Q135 -11 116 9T97 65Z" />
<glyph unicode="@" glyph-name="at" horiz-adv-x="881" d="M558 484H624L585 211Q573 120 614 120Q634 120 653 132T688 169T713 233T723 326Q723 395 704 444T649 525T566 572T461 587Q397 587 342 562T246 490T182 380T158 238Q158 85 234 5T447 -75Q473 -75
504 -68T561 -48L590 -135Q558 -152 520 -160T434 -169Q355 -169 287 -145T167 -72T87 54T57 236Q57 341 90 424T180 564T309 651T462 681Q538 681 604 659T719 592T796 481T824 326Q824 260 805 204T752 107T675 43T580 20Q539 20 511 41T484 114H481Q458 76 426
48T346 20Q303 20 273 58T243 164Q243 231 259 290T304 393T369 464T448 490Q476 490 496 480T533 453L558 484ZM505 369Q487 390 458 390Q435 390 416 374T383 330T361 267T353 193Q353 158 364 139T400 120Q422 120 444 144T482 199L505 369Z" />
<glyph unicode="A" glyph-name="A" horiz-adv-x="501" d="M328 158H163L122 0H-3L200 705H299L503 0H371L328 158ZM190 262H306L266 425L250 535H246L229 424L190 262Z" />
<glyph unicode="B" glyph-name="B" horiz-adv-x="490" d="M445 538Q445 512 440 487T422 439T391 399T344 373V367Q368 361 389 349T427 317T452 267T462 197Q462 143 444 104T394 39T320 2T231 -10Q217 -10 195 -10T148 -9T95 -4T45 5V695Q78 701 126 705T223
710Q267 710 307 703T378 677T427 625T445 538ZM234 99Q276 99 303 126T330 205Q330 238 321 257T297 287T263 301T222 304H171V105Q179 102 198 101T234 99ZM200 403Q211 403 225 404T249 408Q278 419 298 444T319 509Q319 535 312 553T293 581T265 596T229 601Q188
601 171 597V403H200Z" />
<glyph unicode="C" glyph-name="C" horiz-adv-x="457" d="M442 28Q416 6 373 -4T286 -14Q232 -14 186 4T104 66T49 179T29 351Q29 457 51 527T110 638T194 697T289 714Q338 714 374 706T434 688L409 577Q390 587 365 592T304 598Q235 598 198 538T161 350Q161
295 169 250T196 171T243 120T312 102Q347 102 372 111T417 134L442 28Z" />
<glyph unicode="D" glyph-name="D" horiz-adv-x="535" d="M45 700Q63 703 85 704T131 707T177 709T216 710Q299 710 354 685T443 613T491 501T505 356Q505 283 492 217T444 100T352 19T206 -11Q193 -11 171 -10T125 -8T79 -5T45 -1V700ZM229 594Q213 594 197 594T171
591V109Q174 108 181 108T197 107T213 106T224 105Q269 105 298 126T343 182T366 262T373 358Q373 404 368 447T347 522T303 574T229 594Z" />
<glyph unicode="E" glyph-name="E" horiz-adv-x="430" d="M45 700H395V584H171V412H374V296H171V116H399V0H45V700Z" />
<glyph unicode="F" glyph-name="F" horiz-adv-x="419" d="M45 700H395V584H171V402H377V286H171V0H45V700Z" />
<glyph unicode="G" glyph-name="G" horiz-adv-x="502" d="M257 362H473V52Q436 17 387 2T288 -14Q229 -14 181 7T100 72T48 185T29 350Q29 450 51 519T109 631T194 694T297 714Q345 714 384 706T450 686L424 577Q404 586 378 592T313 598Q278 598 250 584T202
540T172 463T161 349Q161 222 199 162T301 102Q321 102 339 108T372 127V270L257 286V362Z" />
<glyph unicode="H" glyph-name="H" horiz-adv-x="533" d="M362 296H171V0H45V700H171V412H362V700H488V0H362V296Z" />
<glyph unicode="I" glyph-name="I" horiz-adv-x="238" d="M56 700H182V0H56V700Z" />
<glyph unicode="J" glyph-name="J" horiz-adv-x="289" d="M113 700H239V191Q239 145 232 108T207 44T162 3T92 -12Q63 -12 35 -6T-17 11L12 117Q33 104 61 104Q96 104 104 133T113 218V700Z" />
<glyph unicode="K" glyph-name="K" horiz-adv-x="519" d="M198 300H171V0H45V700H171V389L196 401L343 700H485L325 405L278 368L326 330L511 0H357L198 300Z" />
<glyph unicode="L" glyph-name="L" horiz-adv-x="424" d="M417 0H45V700H171V116H417V0Z" />
<glyph unicode="M" glyph-name="M" horiz-adv-x="664" d="M493 361L507 495H502L465 375L351 129H309L188 376L151 497H145L164 362V0H45V700H166L312 397L336 310H340L363 399L500 700H619V0H493V361Z" />
<glyph unicode="N" glyph-name="N" horiz-adv-x="540" d="M199 344L153 467H148L164 346V0H45V705H142L343 353L386 232H392L376 351V700H495V-5H398L199 344Z" />
<glyph unicode="O" glyph-name="O" horiz-adv-x="553" d="M29 350Q29 528 90 621T276 714Q341 714 388 689T465 616T509 501T524 350Q524 172 462 79T276 -14Q210 -14 164 11T87 84T43 199T29 350ZM161 350Q161 297 167 252T187 173T222 121T276 102Q334 102 363
161T392 350Q392 401 386 446T367 525T331 578T276 598Q161 598 161 350Z" />
<glyph unicode="P" glyph-name="P" horiz-adv-x="477" d="M45 693Q81 701 124 705T210 710Q256 710 300 702T380 668T437 598T459 479Q459 413 441 367T391 292T320 250T236 237Q232 237 223 237T204 237T185 239T171 241V0H45V693ZM171 354Q177 352 193 351T216
349Q238 349 258 355T293 375T318 415T327 480Q327 513 319 536T296 572T262 592T222 598Q191 598 171 593V354Z" />
<glyph unicode="Q" glyph-name="Q" horiz-adv-x="553" d="M579 -196Q559 -203 539 -206T498 -209Q456 -209 417 -199T340 -177T269 -154T203 -144Q193 -144 184 -145T165 -149V-37Q189 -31 213 -31Q247 -31 281 -41T351 -62T424 -84T503 -94Q521 -94 540 -92T579
-83V-196ZM29 350Q29 528 90 621T276 714Q341 714 388 689T465 616T509 501T524 350Q524 172 462 79T276 -14Q210 -14 164 11T87 84T43 199T29 350ZM161 350Q161 297 167 252T187 173T222 121T276 102Q334 102 363 161T392 350Q392 401 386 446T367 525T331 578T276
598Q161 598 161 350Z" />
<glyph unicode="R" glyph-name="R" horiz-adv-x="503" d="M45 693Q86 702 133 706T214 710Q257 710 298 702T370 671T421 610T441 512Q441 427 410 374T323 300L363 268L492 0H347L225 276L171 289V0H45V693ZM171 375H214Q261 375 285 403T309 492Q309 537 289
565T226 594Q210 594 195 593T171 589V375Z" />
<glyph unicode="S" glyph-name="S" horiz-adv-x="439" d="M290 180Q290 212 271 234T224 277T162 318T100 367T52 433T33 526Q33 577 48 612T91 670T155 703T234 714Q285 714 329 704T402 677L363 566Q346 578 313 588T240 598Q201 598 180 582T159 535Q159 507
178 486T225 444T287 403T349 353T397 286T416 194Q416 141 401 102T357 38T288 -1T199 -14Q137 -14 91 -2T19 25L60 138Q80 126 115 114T190 102Q290 102 290 180Z" />
<glyph unicode="T" glyph-name="T" horiz-adv-x="474" d="M466 584H300V0H174V584H8V700H466V584Z" />
<glyph unicode="U" glyph-name="U" horiz-adv-x="515" d="M354 700H473V246Q473 110 418 49T264 -12Q149 -12 96 47T42 229V700H168V251Q168 169 190 137T263 104Q312 104 333 138T354 251V700Z" />
<glyph unicode="V" glyph-name="V" horiz-adv-x="503" d="M243 289L257 169H261L277 290L379 700H512L300 -5H204L-10 700H139L243 289Z" />
<glyph unicode="W" glyph-name="W" horiz-adv-x="717" d="M205 315L215 189H219L230 317L324 700H412L503 315L514 189H518L529 317L591 700H719L562 -5H473L375 381L362 490H357L345 380L247 -5H154L-2 700H137L205 315Z" />
<glyph unicode="X" glyph-name="X" horiz-adv-x="528" d="M177 356L22 700H174L255 500L274 424L292 500L377 700H513L353 363L521 0H374L280 215L259 293L239 215L145 0H6L177 356Z" />
<glyph unicode="Y" glyph-name="Y" horiz-adv-x="495" d="M184 260L-4 700H146L243 435L253 359H258L269 437L364 700H499L310 261V0H184V260Z" />
<glyph unicode="Z" glyph-name="Z" horiz-adv-x="445" d="M21 116L255 543L297 584H21V700H424V584L189 154L148 116H424V0H21V116Z" />
<glyph unicode="[" glyph-name="bracketleft" horiz-adv-x="276" d="M45 700H253V597H160V-127H253V-230H45V700Z" />
<glyph unicode="\" glyph-name="backslash" horiz-adv-x="362" d="M373 -103L280 -140L-18 676L76 711L373 -103Z" />
<glyph unicode="]" glyph-name="bracketright" horiz-adv-x="276" d="M231 -230H23V-127H116V597H23V700H231V-230Z" />
<glyph unicode="^" glyph-name="asciicircum" horiz-adv-x="428" d="M181 705H249L404 413H285L229 535L212 608L191 534L132 413H18L181 705Z" />
<glyph unicode="_" glyph-name="underscore" horiz-adv-x="374" d="M0 -122H374V-224H0V-122Z" />
<glyph unicode="`" glyph-name="grave" horiz-adv-x="290" d="M230 566H164L60 690V720H181L230 566Z" />
<glyph unicode="a" glyph-name="a" horiz-adv-x="413" d="M44 470Q74 488 119 499T221 510Q306 510 339 466T373 341Q373 294 371 249T367 160T368 76T382 -1H285L266 60H262Q246 31 217 12T144 -7Q85 -7 51 32T17 138Q17 228 81 266T254 298Q259 356 247 382T193
408Q163 408 131 401T74 381L44 470ZM187 95Q214 95 231 108T256 138V221Q233 224 212 222T175 213T150 193T140 158Q140 127 152 111T187 95Z" />
<glyph unicode="b" glyph-name="b" horiz-adv-x="443" d="M43 700H162V468H165Q201 512 268 512Q339 512 378 453T418 263Q418 121 362 55T209 -12Q156 -12 112 -2T43 20V700ZM162 108Q183 97 217 97Q255 97 275 133T295 256Q295 332 279 367T229 403Q179 403
162 351V108Z" />
<glyph unicode="c" glyph-name="c" horiz-adv-x="350" d="M338 27Q313 7 278 -3T208 -13Q157 -13 123 5T66 58T35 141T25 250Q25 381 72 447T210 513Q255 513 283 505T334 485L306 386Q288 395 272 399T232 404Q190 404 169 368T148 250Q148 182 169 139T238 96Q263
96 280 102T313 119L338 27Z" />
<glyph unicode="d" glyph-name="d" horiz-adv-x="445" d="M402 176Q402 134 403 92T411 -1H327L311 57H307Q273 -13 188 -13Q112 -13 69 47T25 242Q25 374 72 442T212 511Q236 511 252 508T283 498V700H402V176ZM216 96Q243 96 259 109T283 149V385Q273 394 261
398T228 402Q188 402 168 366T148 238Q148 169 164 133T216 96Z" />
<glyph unicode="e" glyph-name="e" horiz-adv-x="428" d="M381 37Q356 15 313 1T223 -13Q171 -13 134 5T72 57T37 139T25 250Q25 385 78 449T227 514Q259 514 289 505T342 473T380 413T395 318Q395 296 393 271T385 217H142Q144 155 168 122T245 89Q277 89 303
99T344 120L381 37ZM225 412Q187 412 168 382T146 296H284Q287 353 272 382T225 412Z" />
<glyph unicode="f" glyph-name="f" horiz-adv-x="267" d="M8 500H62V528Q62 623 97 665T199 708Q265 708 309 690L287 589Q269 596 255 597T226 599Q197 599 189 577T181 500H266V394H181V0H62V394H8V500Z" />
<glyph unicode="g" glyph-name="g" horiz-adv-x="443" d="M401 0Q401 -109 351 -160T212 -212Q150 -212 115 -203T61 -182L86 -81Q108 -90 133 -98T194 -106Q245 -106 264 -79T284 5V32H281Q267 12 244 2T183 -8Q104 -8 65 51T25 240Q25 379 79 445T235 511Q289
511 332 503T401 482V0ZM216 94Q243 94 258 107T282 144V394Q271 399 258 402T226 405Q189 405 169 369T148 245Q148 94 216 94Z" />
<glyph unicode="h" glyph-name="h" horiz-adv-x="449" d="M291 0V302Q291 356 279 380T233 404Q209 404 189 387T162 344V0H43V700H162V455H165Q185 481 213 497T285 513Q316 513 339 504T378 474T402 418T410 328V0H291Z" />
<glyph unicode="i" glyph-name="i" horiz-adv-x="225" d="M53 500H172V0H53V500ZM295 641Q295 671 314 690T368 710Q403 710 424 691T445 641Q445 610 424 592T368 574Q333 574 314 592T295 641Z" />
<glyph unicode="j" glyph-name="j" horiz-adv-x="225" d="M54 500H173V-21Q173 -112 142 -160T41 -208Q13 -208 -16 -201V-95Q27 -99 40 -71T54 14V500ZM295 641Q295 671 314 690T368 710Q403 710 424 691T445 641Q445 610 424 592T368 574Q333 574 314 592T295 641Z" />
<glyph unicode="k" glyph-name="k" horiz-adv-x="412" d="M190 207H162V0H43V700H162V287L186 301L269 500H398L306 302L263 268L310 234L412 0H278L190 207Z" />
<glyph unicode="l" glyph-name="l" horiz-adv-x="243" d="M164 162Q164 127 171 112T194 97Q203 97 212 99T234 106L245 10Q233 2 204 -5T145 -12Q95 -12 70 13T45 98V700H164V162Z" />
<glyph unicode="m" glyph-name="m" horiz-adv-x="663" d="M274 0V291Q274 354 264 378T225 403Q201 403 186 388T162 350V0H43V500H135L150 440H153Q172 471 200 491T276 512Q315 512 339 495T378 435Q397 471 428 491T501 512Q534 512 557 504T595 474T617 417T624
324V0H505V304Q505 355 496 379T456 403Q431 403 416 389T393 349V0H274Z" />
<glyph unicode="n" glyph-name="n" horiz-adv-x="449" d="M291 0V304Q291 359 278 381T234 403Q208 403 189 387T162 347V0H43V500H138L152 442H155Q173 471 204 491T285 512Q315 512 338 503T378 474T402 419T410 333V0H291Z" />
<glyph unicode="o" glyph-name="o" horiz-adv-x="445" d="M25 250Q25 383 77 448T222 513Q322 513 371 447T420 250Q420 116 368 52T222 -13Q25 -13 25 250ZM148 250Q148 175 165 134T222 93Q260 93 278 128T297 250Q297 327 280 367T222 407Q187 407 168 372T148 250Z" />
<glyph unicode="p" glyph-name="p" horiz-adv-x="447" d="M43 500H132L144 443H147Q170 479 198 495T269 512Q345 512 383 455T422 263Q422 129 374 58T235 -14Q211 -14 194 -10T162 3V-200H43V500ZM162 112Q172 102 184 97T217 92Q257 92 278 131T299 266Q299
337 283 371T230 406Q180 406 162 347V112Z" />
<glyph unicode="q" glyph-name="q" horiz-adv-x="443" d="M401 -200H282V35H278Q264 13 242 0T181 -14Q107 -14 66 49T25 240Q25 374 82 442T244 511Q289 511 332 502T401 482V-200ZM282 393Q261 405 226 405Q187 405 168 368T148 245Q148 92 216 92Q243 92 258
105T282 144V393Z" />
<glyph unicode="r" glyph-name="r" horiz-adv-x="293" d="M279 382Q255 391 235 391Q208 391 189 376T162 334V0H43V500H134L148 440H152Q165 473 189 491T246 510Q270 510 293 500L279 382Z" />
<glyph unicode="s" glyph-name="s" horiz-adv-x="350" d="M211 133Q211 154 198 168T163 195T119 221T74 253T40 299T26 367Q26 437 64 475T176 513Q220 513 259 504T321 480L293 388Q274 396 247 403T194 411Q145 411 145 370Q145 351 158 339T193 314T237 289T282
257T316 209T330 140Q330 71 288 29T163 -13Q122 -13 83 -3T19 23L52 119Q73 107 100 98T158 89Q181 89 196 99T211 133Z" />
<glyph unicode="t" glyph-name="t" horiz-adv-x="291" d="M4 500H59V594L178 631V500H275V394H178V176Q178 133 186 115T217 97Q232 97 244 100T270 109L285 14Q263 3 234 -4T173 -12Q116 -12 88 21T59 132V394H4V500Z" />
<glyph unicode="u" glyph-name="u" horiz-adv-x="446" d="M158 500V201Q158 142 169 119T209 96Q237 96 256 116T283 166V500H402V152Q402 111 405 72T416 0H326L305 68H302Q283 33 251 10T170 -13Q139 -13 115 -5T74 25T48 82T39 175V500H158Z" />
<glyph unicode="v" glyph-name="v" horiz-adv-x="399" d="M195 239L207 160H211L222 240L284 500H412L244 -5H164L-13 500H126L195 239Z" />
<glyph unicode="w" glyph-name="w" horiz-adv-x="596" d="M352 500L422 244L434 161H438L448 245L495 500H603L480 -5H386L311 274L303 338H297L290 272L218 -5H121L-7 500H122L176 249L185 160H189L202 250L263 500H352Z" />
<glyph unicode="x" glyph-name="x" horiz-adv-x="439" d="M133 256L14 500H154L205 382L224 318L245 382L297 500H426L306 260L434 0H299L238 130L216 201L193 130L132 0H4L133 256Z" />
<glyph unicode="y" glyph-name="y" horiz-adv-x="400" d="M203 219L216 141H221L230 220L288 500H410L285 49Q268 -10 253 -57T221 -137T183 -187T131 -205Q110 -205 91 -202T57 -190L77 -88Q90 -93 103 -93T128 -83T149 -53T164 0L-10 500H133L203 219Z" />
<glyph unicode="z" glyph-name="z" horiz-adv-x="381" d="M24 106L186 351L230 394H24V500H355V394L195 145L152 106H355V0H24V106Z" />
<glyph unicode="{" glyph-name="braceleft" horiz-adv-x="313" d="M98 98Q98 149 81 168T32 187V283Q64 283 81 303T98 368V582Q98 635 118 668T189 701H296V599H255Q232 599 222 585T212 539V336Q212 292 195 270T155 242V232Q178 228 195 202T212 134V-68Q212
-99 221 -113T256 -128H296V-230H189Q98 -230 98 -112V98Z" />
<glyph unicode="|" glyph-name="bar" horiz-adv-x="188" d="M45 700H143V-130H45V700Z" />
<glyph unicode="}" glyph-name="braceright" horiz-adv-x="313" d="M223 373Q223 322 240 303T289 284V188Q257 188 240 168T223 103V-112Q223 -166 202 -198T129 -230H25V-128H66Q89 -128 99 -114T109 -68V135Q109 179 126 201T166 229V239Q143 243 126 269T109
337V539Q109 570 100 584T65 599H25V701H132Q223 701 223 584V373Z" />
<glyph unicode="~" glyph-name="asciitilde" horiz-adv-x="444" d="M23 378Q62 416 94 430T153 445Q177 445 198 437T238 419T275 401T314 393Q329 393 344 399T377 421L421 318Q391 291 366 281T319 270Q296 270 276 278T236 297T197 317T156 326Q136 326 114
316T64 278L23 378Z" />
<glyph unicode="&#xa0;" glyph-name="uni00A0" horiz-adv-x="205" />
<glyph unicode="&#xa1;" glyph-name="exclamdown" horiz-adv-x="251" d="M169 -202H46V127L69 290H145L169 127V-202ZM35 433Q35 471 54 490T106 509Q141 509 160 490T179 433Q179 398 160 378T106 358Q73 358 54 378T35 433Z" />
<glyph unicode="&#xa2;" glyph-name="cent" horiz-adv-x="478" d="M414 28Q400 17 381 9T339 -5V-100H227V-10Q184 -3 154 18T106 74T79 152T70 250Q70 360 110 426T227 509V600H339V509Q382 502 409 485L384 389Q372 394 358 397T329 403V96Q349 99 364 105T390
118L414 28ZM252 401Q220 390 204 354T187 250Q187 192 202 153T252 100V401Z" />
<glyph unicode="&#xa3;" glyph-name="sterling" horiz-adv-x="478" d="M44 392H104Q92 418 83 450T74 528Q74 576 88 611T126 669T185 703T260 714Q311 714 352 704T426 677L388 574Q371 584 344 592T278 601Q240 601 219 578T197 507Q197 472 207 446T232 392H349V292H266Q268
282 269 273T270 252Q270 223 261 189T235 134L190 99V93L256 109H439V0H44V109H46Q71 110 91 121T124 150T144 191T151 239Q151 268 145 292H44V392Z" />
<glyph unicode="&#xa4;" glyph-name="currency" horiz-adv-x="478" d="M56 607L127 537L144 504Q162 518 186 524T238 531Q264 531 290 524T334 505L351 537L421 607L491 534L422 464L388 449Q413 412 413 356Q413 329 407 306T388 265L422 251L491 180L421 108L351
177L335 210Q318 198 291 191T238 184Q211 184 187 190T144 210L127 177L56 108L-13 180L56 251L89 267Q78 285 72 307T66 356Q66 383 72 406T91 449L56 464L-13 534L56 607ZM165 357Q165 324 185 302T239 280Q272 280 292 302T313 357Q313 389 293 412T239 435Q206
435 186 412T165 357Z" />
<glyph unicode="&#xa5;" glyph-name="yen" horiz-adv-x="478" d="M66 336H143L-12 700H138L235 435L245 359H250L261 437L356 700H491L334 336H412V257H302V199H412V120H302V0H176V120H66V199H176V257H66V336Z" />
<glyph unicode="&#xa6;" glyph-name="brokenbar" horiz-adv-x="188" d="M45 213H143V-130H45V213ZM143 357H45V700H143V357Z" />
<glyph unicode="&#xa7;" glyph-name="section" horiz-adv-x="444" d="M121 481Q98 498 83 522T68 588Q68 642 104 678T219 714Q267 714 312 705T379 683L349 584Q328 594 298 601T242 608Q212 608 200 597T187 570Q187 551 203 540T243 520T296 501T349 472T390
424T406 347Q406 316 394 286T359 232L322 218Q345 202 360 178T375 112Q375 51 334 19T220 -14Q164 -14 125 -3T59 24L90 120Q110 109 137 101T199 92Q229 92 242 102T256 133Q256 152 240 162T200 182T147 203T95 232T54 279T38 353Q38 384 50 414T86 467L121
481ZM248 269Q265 281 276 301T287 345Q287 379 263 395T195 429Q178 417 168 399T157 355Q157 322 181 304T248 269Z" />
<glyph unicode="&#xa8;" glyph-name="dieresis" horiz-adv-x="432" d="M60 651Q60 683 77 701T124 719Q152 719 169 701T186 651Q186 621 169 604T124 586Q95 586 78 603T60 651ZM246 651Q246 683 263 701T309 719Q338 719 355 701T372 651Q372 621 355 604T309
586Q280 586 263 603T246 651Z" />
<glyph unicode="&#xa9;" glyph-name="copyright" horiz-adv-x="725" d="M51 298Q51 370 75 427T141 525T240 587T363 609Q428 609 485 588T584 526T650 428T674 298Q674 226 650 169T584 71T485 9T363 -13Q291 -13 233 8T135 70T73 168T51 298ZM137 298Q137 244
153 202T200 129T271 83T363 67Q412 67 453 83T525 129T571 201T588 298Q588 352 572 394T525 467T454 513T363 529Q313 529 272 513T200 467T154 395T137 298ZM471 161Q452 149 423 142T361 134Q292 134 255 178T218 298Q218 376 257 419T361 462Q393 462 417
455T465 434L437 357Q422 365 409 367T385 370Q360 370 347 353T333 298Q333 226 391 226Q420 226 445 239L471 161Z" />
<glyph unicode="&#xaa;" glyph-name="ordfeminine" horiz-adv-x="347" d="M45 675Q67 689 107 698T198 708Q264 708 288 681T313 596Q313 562 312 530T311 467Q311 443 312 422T317 380H229L216 424H213Q203 407 183 392T127 376Q81 376 55 403T29 475Q29 508
43 530T83 565T141 582T210 585Q212 611 205 623T169 635Q137 635 111 628T67 613L45 675ZM210 526Q177 530 155 523T132 488Q132 472 140 463T162 453Q185 453 195 462T210 481V526Z" />
<glyph unicode="&#xab;" glyph-name="guillemotleft" horiz-adv-x="405" d="M184 261L309 477L377 432L308 299L270 260L308 225L382 94L314 48L184 261ZM22 259L153 489L229 438L153 301L114 260L153 224L233 89L158 38L22 259Z" />
<glyph unicode="&#xac;" glyph-name="logicalnot" horiz-adv-x="444" d="M40 409H408V186H296V303H40V409Z" />
<glyph unicode="&#xad;" glyph-name="uni00AD" horiz-adv-x="298" d="M45 344H253V230H45V344Z" />
<glyph unicode="&#xae;" glyph-name="registered" horiz-adv-x="595" d="M54 483Q54 541 73 586T126 663T204 710T298 726Q349 726 393 710T470 663T522 587T541 483Q541 425 522 380T469 303T392 256T298 240Q247 240 203 256T125 303T73 379T54 483ZM136 483Q136
441 149 410T184 359T236 328T298 318Q332 318 361 328T413 358T447 409T459 483Q459 525 446 556T411 607T360 638T298 649Q225 649 181 605T136 483ZM209 595Q223 599 248 601T295 604Q331 604 357 589T383 537Q383 510 366 495T322 478L346 466L402 372H349L295
462L254 475V372H209V595ZM286 565Q276 565 268 565T254 561V501H283Q309 501 322 508T335 535Q335 565 286 565Z" />
<glyph unicode="&#xaf;" glyph-name="overscore" horiz-adv-x="392" d="M60 658H332V567H60V658Z" />
<glyph unicode="&#xb0;" glyph-name="degree" horiz-adv-x="364" d="M44 548Q44 585 54 616T83 668T128 702T185 714Q249 714 288 671T328 548Q328 470 289 427T185 384Q122 384 83 427T44 548ZM134 548Q134 515 148 493T186 470Q209 470 223 492T238 548Q238
582 224 605T186 628Q162 628 148 606T134 548Z" />
<glyph unicode="&#xb1;" glyph-name="plusminus" horiz-adv-x="444" d="M38 500H167V643H277V500H406V394H277V300H167V394H38V500ZM38 252H406V146H38V252Z" />
<glyph unicode="&#xb2;" glyph-name="twosuperior" horiz-adv-x="353" d="M299 684Q299 654 292 628T272 578T244 533T211 493L172 468V468L220 475H310V380H45V447Q68 465 94 490T143 544T180 602T195 660Q195 711 149 711Q127 711 108 705T74 689L45 772Q74
792 108 799T171 807Q231 807 265 776T299 684Z" />
<glyph unicode="&#xb3;" glyph-name="threesuperior" horiz-adv-x="353" d="M144 464Q180 464 194 479T209 518Q209 541 194 554T138 568H99V606L159 687L197 715L147 709H54V800H294V740L224 646L194 627V627L220 626Q263 624 287 595T312 511Q312 475 300 449T266
406T218 381T160 373Q128 373 99 379T49 397L70 483Q107 464 144 464Z" />
<glyph unicode="&#xb4;" glyph-name="acute" horiz-adv-x="281" d="M102 720H221V690L127 566H60L102 720Z" />
<glyph unicode="&#xb5;" glyph-name="mu" horiz-adv-x="476" d="M159 500V213Q159 153 176 124T231 94Q266 94 286 111T316 159V500H435V163Q435 122 437 81T448 0H359L331 64H327Q315 32 290 10T224 -12Q194 -12 177 1T146 34H142L159 -67V-200H40V500H159Z" />
<glyph unicode="&#xb6;" glyph-name="paragraph" d="M306 700H403V-130H306V700ZM147 294Q119 294 96 309T56 352T30 416T21 497Q21 541 32 578T63 642T113 684T177 700H244V-130H147V294Z" />
<glyph unicode="&#xb7;" glyph-name="middot" horiz-adv-x="212" d="M34 315Q34 352 53 371T105 390Q140 390 159 371T178 315Q178 279 159 259T105 239Q72 239 53 259T34 315Z" />
<glyph unicode="&#xb8;" glyph-name="cedilla" horiz-adv-x="305" d="M191 0L171 -43Q205 -47 225 -64T245 -118Q245 -141 235 -158T206 -186T164 -204T114 -210Q87 -210 60 -204L67 -156Q109 -160 122 -151T136 -127Q136 -99 66 -95L115 0H191Z" />
<glyph unicode="&#xb9;" glyph-name="onesuperior" horiz-adv-x="353" d="M63 475H141V643L150 689L124 657L78 626L34 695L165 807H247V475H317V380H63V475Z" />
<glyph unicode="&#xba;" glyph-name="ordmasculine" horiz-adv-x="350" d="M25 542Q25 588 36 620T67 672T114 702T175 712Q208 712 235 704T283 675T314 623T326 542Q326 494 315 462T283 409T236 381T175 372Q142 372 115 380T67 409T36 461T25 542ZM131 542Q131
494 141 475T175 455Q187 455 195 458T209 472T217 499T220 542Q220 593 209 611T175 629Q152 629 142 611T131 542Z" />
<glyph unicode="&#xbb;" glyph-name="guillemotright" horiz-adv-x="405" d="M220 266L95 50L27 93L97 228L134 267L97 302L23 434L90 479L220 266ZM383 268L252 38L176 87L250 226L290 267L250 303L171 438L246 489L383 268Z" />
<glyph unicode="&#xbc;" glyph-name="onequarter" horiz-adv-x="749" d="M713 80H652V0H557V80H385V144L563 425H652V166H713V80ZM557 250L564 305H559L540 254L502 189L472 159L515 166H557V250ZM503 715L584 676L242 -14L159 27L503 715ZM395 544L403 590L377
557L333 526L288 596L419 707H500V280H395V544Z" />
<glyph unicode="&#xbd;" glyph-name="onehalf" horiz-adv-x="770" d="M503 715L584 676L242 -14L159 27L503 715ZM721 304Q721 274 714 248T694 198T666 153T633 113L594 88V88L642 95H732V0H467V67Q490 85 516 110T565 164T602 222T617 280Q617 331 571 331Q549
331 530 325T496 309L467 392Q496 412 530 419T593 427Q653 427 687 396T721 304ZM394 544L402 590L376 557L332 526L287 596L418 707H499V280H394V544Z" />
<glyph unicode="&#xbe;" glyph-name="threequarters" horiz-adv-x="766" d="M521 715L602 676L260 -14L177 27L521 715ZM133 364Q169 364 183 379T198 418Q198 441 183 454T127 468H88V506L148 587L186 615L136 609H43V700H283V640L213 546L183 527V527L209 526Q252
524 276 495T301 411Q301 375 289 349T255 306T207 281T149 273Q117 273 88 279T38 297L59 383Q96 364 133 364ZM730 80H669V0H574V80H402V144L580 425H669V166H730V80ZM574 250L581 305H576L557 254L519 189L489 159L532 166H574V250Z" />
<glyph unicode="&#xbf;" glyph-name="questiondown" horiz-adv-x="382" d="M271 290Q275 244 267 210T245 149T213 101T179 60T153 17T142 -34Q142 -69 158 -89T213 -110Q239 -110 268 -100T318 -71L365 -161Q334 -184 292 -200T190 -216Q110 -216 65 -173T19
-50Q19 -3 30 29T58 86T94 131T130 173T158 222T170 290H271ZM287 433Q287 396 268 377T216 358Q181 358 162 377T143 433Q143 469 162 489T216 509Q249 509 268 489T287 433Z" />
<glyph unicode="&#xc0;" glyph-name="Agrave" horiz-adv-x="501" d="M328 158H163L122 0H-3L200 705H299L503 0H371L328 158ZM190 262H306L266 425L250 535H246L229 424L190 262ZM334 752H240L110 840V870H252L334 752Z" />
<glyph unicode="&#xc1;" glyph-name="Aacute" horiz-adv-x="501" d="M328 158H163L122 0H-3L200 705H299L503 0H371L328 158ZM190 262H306L266 425L250 535H246L229 424L190 262ZM249 870H392V840L260 752H167L249 870Z" />
<glyph unicode="&#xc2;" glyph-name="Acircumflex" horiz-adv-x="501" d="M328 158H163L122 0H-3L200 705H299L503 0H371L328 158ZM190 262H306L266 425L250 535H246L229 424L190 262ZM209 870H296L400 777V738H315L268 779L251 813L233 780L183 738H100V778L209 870Z" />
<glyph unicode="&#xc3;" glyph-name="Atilde" horiz-adv-x="501" d="M328 158H163L122 0H-3L200 705H299L503 0H371L328 158ZM190 262H306L266 425L250 535H246L229 424L190 262ZM82 796Q111 833 138 846T191 860Q210 860 229 855T266 843T300 832T333 826Q347
826 360 831T385 851L412 788Q386 759 363 749T316 738Q297 738 279 743T243 755T208 766T174 772Q157 772 141 765T108 738L82 796Z" />
<glyph unicode="&#xc4;" glyph-name="Adieresis" horiz-adv-x="501" d="M328 158H163L122 0H-3L200 705H299L503 0H371L328 158ZM190 262H306L266 425L250 535H246L229 424L190 262ZM92 798Q92 824 107 840T161 856Q196 856 211 840T227 798Q227 772 212 757T161
741Q123 741 108 756T92 798ZM274 798Q274 824 289 840T341 856Q378 856 393 840T409 798Q409 772 394 757T341 741Q305 741 290 756T274 798Z" />
<glyph unicode="&#xc5;" glyph-name="Aring" horiz-adv-x="501" d="M-3 0L196 691Q165 701 152 721T139 771Q139 789 144 805T162 834T196 854T250 861Q311 861 336 837T362 771Q362 744 349 722T303 690L503 0H371L328 158H163L122 0H-3ZM190 262H306L266 425L250
535H246L229 424L190 262ZM214 771Q214 740 250 740Q271 740 279 747T287 771Q287 788 279 796T250 805Q214 805 214 771Z" />
<glyph unicode="&#xc6;" glyph-name="AE" horiz-adv-x="717" d="M326 522L300 425L235 277H331V522H326ZM331 173H187L108 0H-24L326 700H681V584H457V412H660V296H457V116H685V0H331V173Z" />
<glyph unicode="&#xc7;" glyph-name="Ccedilla" horiz-adv-x="457" d="M442 28Q420 10 387 1T319 -12L305 -43Q339 -47 359 -64T379 -118Q379 -141 369 -158T340 -186T298 -204T248 -210Q221 -210 194 -204L201 -156Q243 -160 256 -151T270 -127Q270 -99 200 -95L243
-11Q197 -5 158 18T91 84T46 193T29 351Q29 457 51 527T110 638T194 697T289 714Q338 714 374 706T434 688L409 577Q390 587 365 592T304 598Q235 598 198 538T161 350Q161 295 169 250T196 171T243 120T312 102Q347 102 372 111T417 134L442 28Z" />
<glyph unicode="&#xc8;" glyph-name="Egrave" horiz-adv-x="430" d="M45 700H395V584H171V412H374V296H171V116H399V0H45V700ZM297 752H203L73 840V870H215L297 752Z" />
<glyph unicode="&#xc9;" glyph-name="Eacute" horiz-adv-x="430" d="M45 700H395V584H171V412H374V296H171V116H399V0H45V700ZM234 870H377V840L245 752H152L234 870Z" />
<glyph unicode="&#xca;" glyph-name="Ecircumflex" horiz-adv-x="430" d="M45 700H395V584H171V412H374V296H171V116H399V0H45V700ZM176 870H263L367 777V738H282L235 779L218 813L200 780L150 738H67V778L176 870Z" />
<glyph unicode="&#xcb;" glyph-name="Edieresis" horiz-adv-x="430" d="M45 700H395V584H171V412H374V296H171V116H399V0H45V700ZM60 798Q60 824 75 840T129 856Q164 856 179 840T195 798Q195 772 180 757T129 741Q91 741 76 756T60 798ZM242 798Q242 824 257
840T309 856Q346 856 361 840T377 798Q377 772 362 757T309 741Q273 741 258 756T242 798Z" />
<glyph unicode="&#xcc;" glyph-name="Igrave" horiz-adv-x="238" d="M56 700H182V0H56V700ZM459 752H365L235 840V870H377L459 752Z" />
<glyph unicode="&#xcd;" glyph-name="Iacute" horiz-adv-x="238" d="M56 700H182V0H56V700ZM375 870H518V840L386 752H293L375 870Z" />
<glyph unicode="&#xce;" glyph-name="Icircumflex" horiz-adv-x="238" d="M56 700H182V0H56V700ZM335 870H422L526 777V738H441L394 779L377 813L359 780L309 738H226V778L335 870Z" />
<glyph unicode="&#xcf;" glyph-name="Idieresis" horiz-adv-x="238" d="M56 700H182V0H56V700ZM218 798Q218 824 233 840T287 856Q322 856 337 840T353 798Q353 772 338 757T287 741Q249 741 234 756T218 798ZM400 798Q400 824 415 840T467 856Q504 856 519 840T535
798Q535 772 520 757T467 741Q431 741 416 756T400 798Z" />
<glyph unicode="&#xd0;" glyph-name="Eth" horiz-adv-x="555" d="M-3 401H65V700Q83 703 105 704T151 707T197 709T236 710Q319 710 374 685T463 613T511 501T525 356Q525 283 512 217T464 100T372 19T226 -11Q213 -11 191 -10T145 -8T99 -5T65 -1V322H-3V401ZM191
401H299V322H191V109Q194 108 201 108T217 107T233 106T244 105Q289 105 318 126T363 182T386 262T393 358Q393 404 388 447T367 522T323 574T249 594Q233 594 217 594T191 591V401Z" />
<glyph unicode="&#xd1;" glyph-name="Ntilde" horiz-adv-x="540" d="M199 344L153 467H148L164 346V0H45V705H142L343 353L386 232H392L376 351V700H495V-5H398L199 344ZM104 796Q133 833 160 846T213 860Q232 860 251 855T288 843T322 832T355 826Q369 826 382
831T407 851L434 788Q408 759 385 749T338 738Q319 738 301 743T265 755T230 766T196 772Q179 772 163 765T130 738L104 796Z" />
<glyph unicode="&#xd2;" glyph-name="Ograve" horiz-adv-x="553" d="M29 350Q29 528 90 621T276 714Q341 714 388 689T465 616T509 501T524 350Q524 172 462 79T276 -14Q210 -14 164 11T87 84T43 199T29 350ZM161 350Q161 297 167 252T187 173T222 121T276 102Q334
102 363 161T392 350Q392 401 386 446T367 525T331 578T276 598Q161 598 161 350ZM344 752H250L120 840V870H262L344 752Z" />
<glyph unicode="&#xd3;" glyph-name="Oacute" horiz-adv-x="553" d="M29 350Q29 528 90 621T276 714Q341 714 388 689T465 616T509 501T524 350Q524 172 462 79T276 -14Q210 -14 164 11T87 84T43 199T29 350ZM161 350Q161 297 167 252T187 173T222 121T276 102Q334
102 363 161T392 350Q392 401 386 446T367 525T331 578T276 598Q161 598 161 350ZM301 870H444V840L312 752H219L301 870Z" />
<glyph unicode="&#xd4;" glyph-name="Ocircumflex" horiz-adv-x="553" d="M29 350Q29 528 90 621T276 714Q341 714 388 689T465 616T509 501T524 350Q524 172 462 79T276 -14Q210 -14 164 11T87 84T43 199T29 350ZM161 350Q161 297 167 252T187 173T222 121T276
102Q334 102 363 161T392 350Q392 401 386 446T367 525T331 578T276 598Q161 598 161 350ZM234 870H321L425 777V738H340L293 779L276 813L258 780L208 738H125V778L234 870Z" />
<glyph unicode="&#xd5;" glyph-name="Otilde" horiz-adv-x="553" d="M29 350Q29 528 90 621T276 714Q341 714 388 689T465 616T509 501T524 350Q524 172 462 79T276 -14Q210 -14 164 11T87 84T43 199T29 350ZM161 350Q161 297 167 252T187 173T222 121T276 102Q334
102 363 161T392 350Q392 401 386 446T367 525T331 578T276 598Q161 598 161 350ZM110 796Q139 833 166 846T219 860Q238 860 257 855T294 843T328 832T361 826Q375 826 388 831T413 851L440 788Q414 759 391 749T344 738Q325 738 307 743T271 755T236 766T202
772Q185 772 169 765T136 738L110 796Z" />
<glyph unicode="&#xd6;" glyph-name="Odieresis" horiz-adv-x="553" d="M29 350Q29 528 90 621T276 714Q341 714 388 689T465 616T509 501T524 350Q524 172 462 79T276 -14Q210 -14 164 11T87 84T43 199T29 350ZM161 350Q161 297 167 252T187 173T222 121T276
102Q334 102 363 161T392 350Q392 401 386 446T367 525T331 578T276 598Q161 598 161 350ZM118 798Q118 824 133 840T187 856Q222 856 237 840T253 798Q253 772 238 757T187 741Q149 741 134 756T118 798ZM300 798Q300 824 315 840T367 856Q404 856 419 840T435
798Q435 772 420 757T367 741Q331 741 316 756T300 798Z" />
<glyph unicode="&#xd7;" glyph-name="multiply" horiz-adv-x="444" d="M112 541L223 417L334 541L410 468L295 339L410 208L334 135L223 259L111 134L34 206L152 339L36 468L112 541Z" />
<glyph unicode="&#xd8;" glyph-name="Oslash" horiz-adv-x="553" d="M88 83Q57 131 43 198T29 350Q29 528 90 621T276 714Q348 714 401 681L419 715L498 674L466 613Q496 565 510 499T524 350Q524 172 462 79T276 -14Q240 -14 210 -6T155 16L139 -14L60 29L88
83ZM342 567Q316 598 276 598Q161 598 161 350Q161 319 163 291T169 237L342 567ZM213 129Q238 102 276 102Q334 102 363 161T392 350Q392 379 390 405T384 457L213 129Z" />
<glyph unicode="&#xd9;" glyph-name="Ugrave" horiz-adv-x="515" d="M354 700H473V246Q473 110 418 49T264 -12Q149 -12 96 47T42 229V700H168V251Q168 169 190 137T263 104Q312 104 333 138T354 251V700ZM326 752H232L102 840V870H244L326 752Z" />
<glyph unicode="&#xda;" glyph-name="Uacute" horiz-adv-x="515" d="M354 700H473V246Q473 110 418 49T264 -12Q149 -12 96 47T42 229V700H168V251Q168 169 190 137T263 104Q312 104 333 138T354 251V700ZM296 870H439V840L307 752H214L296 870Z" />
<glyph unicode="&#xdb;" glyph-name="Ucircumflex" horiz-adv-x="515" d="M354 700H473V246Q473 110 418 49T264 -12Q149 -12 96 47T42 229V700H168V251Q168 169 190 137T263 104Q312 104 333 138T354 251V700ZM220 870H307L411 777V738H326L279 779L262 813L244
780L194 738H111V778L220 870Z" />
<glyph unicode="&#xdc;" glyph-name="Udieresis" horiz-adv-x="515" d="M354 700H473V246Q473 110 418 49T264 -12Q149 -12 96 47T42 229V700H168V251Q168 169 190 137T263 104Q312 104 333 138T354 251V700ZM101 798Q101 824 116 840T170 856Q205 856 220 840T236
798Q236 772 221 757T170 741Q132 741 117 756T101 798ZM283 798Q283 824 298 840T350 856Q387 856 402 840T418 798Q418 772 403 757T350 741Q314 741 299 756T283 798Z" />
<glyph unicode="&#xdd;" glyph-name="Yacute" horiz-adv-x="495" d="M184 260L-4 700H146L243 435L253 359H258L269 437L364 700H499L310 261V0H184V260ZM265 870H408V840L276 752H183L265 870Z" />
<glyph unicode="&#xde;" glyph-name="Thorn" horiz-adv-x="477" d="M45 700H171V627Q190 628 210 628Q256 628 300 620T380 586T437 516T459 397Q459 332 441 286T391 211T320 169T236 155H223Q214 155 204 155T185 157T171 159V0H45V700ZM222 516Q191 516 171
511V273Q177 271 193 270T216 268Q238 268 258 273T293 294T317 334T326 398Q326 432 318 454T295 490T262 510T222 516Z" />
<glyph unicode="&#xdf;" glyph-name="germandbls" horiz-adv-x="535" d="M63 394H9V500H63V511Q63 565 77 603T116 664T175 697T250 708Q292 708 328 699T390 670T432 622T447 555Q447 520 432 497T399 454T365 418T350 380Q350 361 362 348T392 323T432 298T472
266T503 221T515 155Q515 122 505 92T475 38T424 1T352 -13Q314 -13 279 -4T220 21L251 115Q271 104 290 97T338 89Q364 89 380 107T396 151Q396 174 384 189T354 217T314 242T274 271T243 312T231 371Q231 407 246 430T279 471T312 505T327 544Q327 570 305 586T257
603Q221 603 202 581T182 495V0H63V394Z" />
<glyph unicode="&#xe0;" glyph-name="agrave" horiz-adv-x="413" d="M44 470Q74 488 119 499T221 510Q306 510 339 466T373 341Q373 294 371 249T367 160T368 76T382 -1H285L266 60H262Q246 31 217 12T144 -7Q85 -7 51 32T17 138Q17 228 81 266T254 298Q259 356
247 382T193 408Q163 408 131 401T74 381L44 470ZM187 95Q214 95 231 108T256 138V221Q233 224 212 222T175 213T150 193T140 158Q140 127 152 111T187 95ZM259 566H193L89 690V720H210L259 566Z" />
<glyph unicode="&#xe1;" glyph-name="aacute" horiz-adv-x="413" d="M44 470Q74 488 119 499T221 510Q306 510 339 466T373 341Q373 294 371 249T367 160T368 76T382 -1H285L266 60H262Q246 31 217 12T144 -7Q85 -7 51 32T17 138Q17 228 81 266T254 298Q259 356
247 382T193 408Q163 408 131 401T74 381L44 470ZM187 95Q214 95 231 108T256 138V221Q233 224 212 222T175 213T150 193T140 158Q140 127 152 111T187 95ZM196 720H315V690L221 566H154L196 720Z" />
<glyph unicode="&#xe2;" glyph-name="acircumflex" horiz-adv-x="413" d="M44 470Q74 488 119 499T221 510Q306 510 339 466T373 341Q373 294 371 249T367 160T368 76T382 -1H285L266 60H262Q246 31 217 12T144 -7Q85 -7 51 32T17 138Q17 228 81 266T254 298Q259
356 247 382T193 408Q163 408 131 401T74 381L44 470ZM187 95Q214 95 231 108T256 138V221Q233 224 212 222T175 213T150 193T140 158Q140 127 152 111T187 95ZM174 732H259L350 550H257L225 616L212 665L199 616L162 550H73L174 732Z" />
<glyph unicode="&#xe3;" glyph-name="atilde" horiz-adv-x="413" d="M44 470Q74 488 119 499T221 510Q306 510 339 466T373 341Q373 294 371 249T367 160T368 76T382 -1H285L266 60H262Q246 31 217 12T144 -7Q85 -7 51 32T17 138Q17 228 81 266T254 298Q259 356
247 382T193 408Q163 408 131 401T74 381L44 470ZM187 95Q214 95 231 108T256 138V221Q233 224 212 222T175 213T150 193T140 158Q140 127 152 111T187 95ZM60 656Q89 693 114 706T160 720Q178 720 193 714T224 699T254 684T284 677Q295 677 307 682T333 700L355
639Q328 607 305 595T261 583Q243 583 228 589T197 602T167 616T137 623Q124 623 111 618T84 598L60 656Z" />
<glyph unicode="&#xe4;" glyph-name="adieresis" horiz-adv-x="413" d="M44 470Q74 488 119 499T221 510Q306 510 339 466T373 341Q373 294 371 249T367 160T368 76T382 -1H285L266 60H262Q246 31 217 12T144 -7Q85 -7 51 32T17 138Q17 228 81 266T254 298Q259
356 247 382T193 408Q163 408 131 401T74 381L44 470ZM187 95Q214 95 231 108T256 138V221Q233 224 212 222T175 213T150 193T140 158Q140 127 152 111T187 95ZM312 651Q312 683 329 701T376 719Q404 719 421 701T438 651Q438 621 421 604T376 586Q347 586 330
603T312 651ZM498 651Q498 683 515 701T561 719Q590 719 607 701T624 651Q624 621 607 604T561 586Q532 586 515 603T498 651Z" />
<glyph unicode="&#xe5;" glyph-name="aring" horiz-adv-x="413" d="M44 470Q74 488 119 499T221 510Q306 510 339 466T373 341Q373 294 371 249T367 160T368 76T382 -1H285L266 60H262Q246 31 217 12T144 -7Q85 -7 51 32T17 138Q17 228 81 266T254 298Q259 356
247 382T193 408Q163 408 131 401T74 381L44 470ZM187 95Q214 95 231 108T256 138V221Q233 224 212 222T175 213T150 193T140 158Q140 127 152 111T187 95ZM114 647Q114 692 138 717T211 742Q257 742 283 719T309 647Q309 605 284 580T211 554Q164 554 139 579T114
647ZM181 647Q181 630 189 622T211 613Q242 613 242 647Q242 666 234 674T211 683Q198 683 190 675T181 647Z" />
<glyph unicode="&#xe6;" glyph-name="ae" horiz-adv-x="653" d="M257 223Q234 225 213 224T176 215T150 194T140 158Q140 130 152 114T187 98Q215 98 232 111T257 143V223ZM287 68Q266 34 234 13T146 -8Q86 -8 52 33T17 139Q17 185 33 216T80 267T155 295T253
300Q254 309 254 316T254 332Q254 371 241 388T194 406Q163 406 131 397T74 374L43 464Q75 485 121 497T217 510Q259 510 285 497T329 456Q349 485 381 499T453 514Q485 514 515 505T569 472T607 411T621 316Q621 294 619 269T611 216H370Q372 150 395 120T470
89Q501 89 527 98T568 119L607 36Q582 16 540 2T447 -13Q338 -13 292 68H287ZM510 295Q513 349 498 380T450 412Q412 412 394 382T373 295H510Z" />
<glyph unicode="&#xe7;" glyph-name="ccedilla" horiz-adv-x="350" d="M338 27Q320 12 297 4T248 -10L233 -43Q267 -47 287 -64T307 -118Q307 -141 297 -158T268 -186T226 -204T176 -210Q149 -210 122 -204L129 -156Q171 -160 184 -151T198 -127Q198 -99 128 -95L171
-10Q91 3 58 72T25 250Q25 381 72 447T210 513Q255 513 283 505T334 485L306 386Q288 395 272 399T232 404Q190 404 169 368T148 250Q148 182 169 139T238 96Q263 96 280 102T313 119L338 27Z" />
<glyph unicode="&#xe8;" glyph-name="egrave" horiz-adv-x="428" d="M381 37Q356 15 313 1T223 -13Q171 -13 134 5T72 57T37 139T25 250Q25 385 78 449T227 514Q259 514 289 505T342 473T380 413T395 318Q395 296 393 271T385 217H142Q144 155 168 122T245 89Q277
89 303 99T344 120L381 37ZM225 412Q187 412 168 382T146 296H284Q287 353 272 382T225 412ZM271 566H205L101 690V720H222L271 566Z" />
<glyph unicode="&#xe9;" glyph-name="eacute" horiz-adv-x="428" d="M381 37Q356 15 313 1T223 -13Q171 -13 134 5T72 57T37 139T25 250Q25 385 78 449T227 514Q259 514 289 505T342 473T380 413T395 318Q395 296 393 271T385 217H142Q144 155 168 122T245 89Q277
89 303 99T344 120L381 37ZM225 412Q187 412 168 382T146 296H284Q287 353 272 382T225 412ZM223 720H342V690L248 566H181L223 720Z" />
<glyph unicode="&#xea;" glyph-name="ecircumflex" horiz-adv-x="428" d="M381 37Q356 15 313 1T223 -13Q171 -13 134 5T72 57T37 139T25 250Q25 385 78 449T227 514Q259 514 289 505T342 473T380 413T395 318Q395 296 393 271T385 217H142Q144 155 168 122T245
89Q277 89 303 99T344 120L381 37ZM225 412Q187 412 168 382T146 296H284Q287 353 272 382T225 412ZM179 732H264L355 550H262L230 616L217 665L204 616L167 550H78L179 732Z" />
<glyph unicode="&#xeb;" glyph-name="edieresis" horiz-adv-x="428" d="M381 37Q356 15 313 1T223 -13Q171 -13 134 5T72 57T37 139T25 250Q25 385 78 449T227 514Q259 514 289 505T342 473T380 413T395 318Q395 296 393 271T385 217H142Q144 155 168 122T245
89Q277 89 303 99T344 120L381 37ZM225 412Q187 412 168 382T146 296H284Q287 353 272 382T225 412ZM65 651Q65 683 82 701T129 719Q157 719 174 701T191 651Q191 621 174 604T129 586Q100 586 83 603T65 651ZM251 651Q251 683 268 701T314 719Q343 719 360 701T377
651Q377 621 360 604T314 586Q285 586 268 603T251 651Z" />
<glyph unicode="&#xec;" glyph-name="igrave" horiz-adv-x="225" d="M53 500H172V0H53V500ZM421 566H355L251 690V720H372L421 566Z" />
<glyph unicode="&#xed;" glyph-name="iacute" horiz-adv-x="225" d="M53 500H172V0H53V500ZM357 720H476V690L382 566H315L357 720Z" />
<glyph unicode="&#xee;" glyph-name="icircumflex" horiz-adv-x="225" d="M53 500H172V0H53V500ZM330 732H415L506 550H413L381 616L368 665L355 616L318 550H229L330 732Z" />
<glyph unicode="&#xef;" glyph-name="idieresis" horiz-adv-x="225" d="M53 500H172V0H53V500ZM213 651Q213 683 230 701T277 719Q305 719 322 701T339 651Q339 621 322 604T277 586Q248 586 231 603T213 651ZM399 651Q399 683 416 701T462 719Q491 719 508 701T525
651Q525 621 508 604T462 586Q433 586 416 603T399 651Z" />
<glyph unicode="&#xf0;" glyph-name="eth" horiz-adv-x="458" d="M142 244Q142 163 166 128T231 92Q250 92 265 102T292 134T310 192T317 280Q317 286 317 297T316 319T314 341T312 358Q299 376 277 384T231 393Q187 393 165 354T142 244ZM149 580L197 617Q167
635 135 646L183 714Q204 707 230 695Q250 686 270 673L317 709L357 659L320 630Q329 621 338 610Q365 580 385 537T418 438T431 308Q431 222 417 161T375 61T310 4T223 -14Q126 -14 77 53T27 245Q27 306 41 353T80 432T139 482T215 499Q244 499 269 490T311 462Q293
532 248 576L190 531L149 580Z" />
<glyph unicode="&#xf1;" glyph-name="ntilde" horiz-adv-x="449" d="M291 0V304Q291 359 278 381T234 403Q208 403 189 387T162 347V0H43V500H138L152 442H155Q173 471 204 491T285 512Q315 512 338 503T378 474T402 419T410 333V0H291ZM77 656Q106 693 131 706T177
720Q195 720 210 714T241 699T271 684T301 677Q312 677 324 682T350 700L372 639Q345 607 322 595T278 583Q260 583 245 589T214 602T184 616T154 623Q141 623 128 618T101 598L77 656Z" />
<glyph unicode="&#xf2;" glyph-name="ograve" horiz-adv-x="445" d="M25 250Q25 383 77 448T222 513Q322 513 371 447T420 250Q420 116 368 52T222 -13Q25 -13 25 250ZM148 250Q148 175 165 134T222 93Q260 93 278 128T297 250Q297 327 280 367T222 407Q187 407
168 372T148 250ZM271 566H205L101 690V720H222L271 566Z" />
<glyph unicode="&#xf3;" glyph-name="oacute" horiz-adv-x="445" d="M25 250Q25 383 77 448T222 513Q322 513 371 447T420 250Q420 116 368 52T222 -13Q25 -13 25 250ZM148 250Q148 175 165 134T222 93Q260 93 278 128T297 250Q297 327 280 367T222 407Q187 407
168 372T148 250ZM224 720H343V690L249 566H182L224 720Z" />
<glyph unicode="&#xf4;" glyph-name="ocircumflex" horiz-adv-x="445" d="M25 250Q25 383 77 448T222 513Q322 513 371 447T420 250Q420 116 368 52T222 -13Q25 -13 25 250ZM148 250Q148 175 165 134T222 93Q260 93 278 128T297 250Q297 327 280 367T222 407Q187
407 168 372T148 250ZM186 732H271L362 550H269L237 616L224 665L211 616L174 550H85L186 732Z" />
<glyph unicode="&#xf5;" glyph-name="otilde" horiz-adv-x="445" d="M25 250Q25 383 77 448T222 513Q322 513 371 447T420 250Q420 116 368 52T222 -13Q25 -13 25 250ZM148 250Q148 175 165 134T222 93Q260 93 278 128T297 250Q297 327 280 367T222 407Q187 407
168 372T148 250ZM73 656Q102 693 127 706T173 720Q191 720 206 714T237 699T267 684T297 677Q308 677 320 682T346 700L368 639Q341 607 318 595T274 583Q256 583 241 589T210 602T180 616T150 623Q137 623 124 618T97 598L73 656Z" />
<glyph unicode="&#xf6;" glyph-name="odieresis" horiz-adv-x="445" d="M25 250Q25 383 77 448T222 513Q322 513 371 447T420 250Q420 116 368 52T222 -13Q25 -13 25 250ZM148 250Q148 175 165 134T222 93Q260 93 278 128T297 250Q297 327 280 367T222 407Q187
407 168 372T148 250ZM66 651Q66 683 83 701T130 719Q158 719 175 701T192 651Q192 621 175 604T130 586Q101 586 84 603T66 651ZM252 651Q252 683 269 701T315 719Q344 719 361 701T378 651Q378 621 361 604T315 586Q286 586 269 603T252 651Z" />
<glyph unicode="&#xf7;" glyph-name="divide" horiz-adv-x="444" d="M38 393H406V287H38V393ZM151 158Q151 195 170 214T222 233Q257 233 276 214T295 158Q295 122 276 102T222 82Q189 82 170 102T151 158ZM151 523Q151 560 170 579T222 598Q257 598 276 579T295
523Q295 487 276 467T222 447Q189 447 170 467T151 523Z" />
<glyph unicode="&#xf8;" glyph-name="oslash" d="M62 78Q28 142 28 250Q28 384 80 449T226 514Q275 514 313 496L331 526L410 477L383 431Q423 366 423 250Q423 116 372 51T226 -14Q198 -14 175 -9T132 7L113 -24L32 27L62 78ZM179 114Q197 92 226 92Q264 92 283
127T302 250Q302 269 301 285T298 317L179 114ZM269 390Q252 408 226 408Q189 408 169 372T149 250Q149 217 152 190L269 390Z" />
<glyph unicode="&#xf9;" glyph-name="ugrave" horiz-adv-x="446" d="M158 500V201Q158 142 169 119T209 96Q237 96 256 116T283 166V500H402V152Q402 111 405 72T416 0H326L305 68H302Q283 33 251 10T170 -13Q139 -13 115 -5T74 25T48 82T39 175V500H158ZM265
566H199L95 690V720H216L265 566Z" />
<glyph unicode="&#xfa;" glyph-name="uacute" horiz-adv-x="446" d="M158 500V201Q158 142 169 119T209 96Q237 96 256 116T283 166V500H402V152Q402 111 405 72T416 0H326L305 68H302Q283 33 251 10T170 -13Q139 -13 115 -5T74 25T48 82T39 175V500H158ZM212
720H331V690L237 566H170L212 720Z" />
<glyph unicode="&#xfb;" glyph-name="ucircumflex" horiz-adv-x="446" d="M158 500V201Q158 142 169 119T209 96Q237 96 256 116T283 166V500H402V152Q402 111 405 72T416 0H326L305 68H302Q283 33 251 10T170 -13Q139 -13 115 -5T74 25T48 82T39 175V500H158ZM184
732H269L360 550H267L235 616L222 665L209 616L172 550H83L184 732Z" />
<glyph unicode="&#xfc;" glyph-name="udieresis" horiz-adv-x="446" d="M158 500V201Q158 142 169 119T209 96Q237 96 256 116T283 166V500H402V152Q402 111 405 72T416 0H326L305 68H302Q283 33 251 10T170 -13Q139 -13 115 -5T74 25T48 82T39 175V500H158ZM63
651Q63 683 80 701T127 719Q155 719 172 701T189 651Q189 621 172 604T127 586Q98 586 81 603T63 651ZM249 651Q249 683 266 701T312 719Q341 719 358 701T375 651Q375 621 358 604T312 586Q283 586 266 603T249 651Z" />
<glyph unicode="&#xfd;" glyph-name="yacute" horiz-adv-x="400" d="M203 219L216 141H221L230 220L288 500H410L285 49Q268 -10 253 -57T221 -137T183 -187T131 -205Q110 -205 91 -202T57 -190L77 -88Q90 -93 103 -93T128 -83T149 -53T164 0L-10 500H133L203
219ZM205 720H324V690L230 566H163L205 720Z" />
<glyph unicode="&#xfe;" glyph-name="thorn" horiz-adv-x="446" d="M43 700H162V463H165Q182 486 206 500T269 514Q345 514 383 455T421 263Q421 199 409 148T374 60T315 5T234 -14Q210 -14 193 -10T162 2V-200H43V700ZM230 408Q204 408 188 393T162 351V111Q172
102 184 97T218 92Q258 92 278 131T298 266Q298 336 283 372T230 408Z" />
<glyph unicode="&#xff;" glyph-name="ydieresis" horiz-adv-x="400" d="M203 219L216 141H221L230 220L288 500H410L285 49Q268 -10 253 -57T221 -137T183 -187T131 -205Q110 -205 91 -202T57 -190L77 -88Q90 -93 103 -93T128 -83T149 -53T164 0L-10 500H133L203
219ZM304 651Q304 683 321 701T368 719Q396 719 413 701T430 651Q430 621 413 604T368 586Q339 586 322 603T304 651ZM490 651Q490 683 507 701T553 719Q582 719 599 701T616 651Q616 621 599 604T553 586Q524 586 507 603T490 651Z" />
<glyph unicode="&#x2013;" glyph-name="endash" horiz-adv-x="543" d="M87 343H455V234H87V343Z" />
<glyph unicode="&#x2014;" glyph-name="emdash" horiz-adv-x="676" d="M88 343H587V234H88V343Z" />
<glyph unicode="&#x2018;" glyph-name="quoteleft" horiz-adv-x="188" d="M159 618Q159 589 142 572T98 554Q66 554 48 577T29 639Q29 678 40 706T67 753T99 783T128 799L160 748Q143 739 130 721T114 682Q131 680 145 664T159 618Z" />
<glyph unicode="&#x2019;" glyph-name="quoteright" horiz-adv-x="188" d="M29 644Q29 673 46 691T90 709Q122 709 140 687T159 624Q159 585 148 558T122 513T89 483T60 467L30 517Q47 525 60 541T75 580Q58 581 44 596T29 644Z" />
<glyph unicode="&#x201a;" glyph-name="quotesinglbase" horiz-adv-x="188" d="M29 62Q29 91 46 109T90 127Q122 127 140 105T159 42Q159 3 148 -24T122 -69T89 -99T60 -115L30 -65Q47 -57 60 -41T75 -2Q58 -1 44 14T29 62Z" />
<glyph unicode="&#x201c;" glyph-name="quotedblleft" horiz-adv-x="342" d="M312 618Q312 589 295 572T251 554Q219 554 201 577T182 639Q182 678 193 706T220 753T252 783T281 799L313 748Q296 739 283 721T267 682Q284 680 298 664T312 618ZM159 618Q159 589
142 572T98 554Q66 554 48 577T29 639Q29 678 40 706T67 753T99 783T128 799L160 748Q143 739 130 721T114 682Q131 680 145 664T159 618Z" />
<glyph unicode="&#x201d;" glyph-name="quotedblright" horiz-adv-x="342" d="M182 644Q182 673 199 691T243 709Q275 709 293 687T312 624Q312 585 301 558T275 513T242 483T213 467L183 517Q200 525 213 541T228 580Q211 581 197 596T182 644ZM29 644Q29 673
46 691T90 709Q122 709 140 687T159 624Q159 585 148 558T122 513T89 483T60 467L30 517Q47 525 60 541T75 580Q58 581 44 596T29 644Z" />
<glyph unicode="&#x201e;" glyph-name="quotedblbase" horiz-adv-x="341" d="M182 62Q182 91 199 109T243 127Q275 127 293 105T312 42Q312 3 301 -24T275 -69T242 -99T213 -115L183 -65Q200 -57 213 -41T228 -2Q211 -1 197 14T182 62ZM29 62Q29 91 46 109T90
127Q122 127 140 105T159 42Q159 3 148 -24T122 -69T89 -99T60 -115L30 -65Q47 -57 60 -41T75 -2Q58 -1 44 14T29 62Z" />
<glyph unicode="&#x2022;" glyph-name="bullet" horiz-adv-x="372" d="M57 311Q57 345 66 373T93 422T133 453T185 464Q242 464 278 425T315 311Q315 238 279 199T185 159Q129 159 93 198T57 311Z" />
<glyph unicode="&#x2039;" glyph-name="guilsinglleft" horiz-adv-x="256" d="M22 259L153 489L226 442L153 301L114 260L153 224L233 89L158 38L22 259Z" />
<glyph unicode="&#x203a;" glyph-name="guilsinglright" horiz-adv-x="256" d="M98 38L23 89L103 224L142 260L103 301L30 442L103 489L234 259L98 38Z" />
</font>
</defs>
</svg>
