<?xml version="1.0" standalone="no"?>
<!DOCTYPE svg PUBLIC "-//W3C//DTD SVG 1.1//EN" "http://www.w3.org/Graphics/SVG/1.1/DTD/svg11.dtd" >
<svg xmlns="http://www.w3.org/2000/svg" xmlns:xlink="http://www.w3.org/1999/xlink" version="1.1">
<metadata></metadata>
<defs>
<font id="montheavy" horiz-adv-x="744" >
<font-face units-per-em="1000" ascent="800" descent="-200" />
<missing-glyph horiz-adv-x="217" />
<glyph horiz-adv-x="0" />
<glyph horiz-adv-x="333" />
<glyph unicode=" "  horiz-adv-x="217" />
<glyph unicode="&#x09;" horiz-adv-x="217" />
<glyph unicode="&#xa0;" horiz-adv-x="217" />
<glyph unicode="!" horiz-adv-x="315" d="M71 233v487h174v-487h-174zM67 0v173h181v-173h-181z" />
<glyph unicode="&#x22;" horiz-adv-x="489" d="M53 432v270h158v-270h-158zM279 432v270h157v-270h-157z" />
<glyph unicode="#" horiz-adv-x="655" d="M614 399h-73l-15 -101h65v-148h-89l-22 -149h-156l22 149h-89l-24 -149h-157l24 149h-60v148h84l16 101h-77v143h100l24 158h157l-24 -158h85l24 158h156l-24 -158h53v-143zM371 298l15 101h-90l-17 -101h92z" />
<glyph unicode="$" horiz-adv-x="609" d="M575 206q0 -87 -52 -142t-141 -71v-70h-149v69q-93 17 -145.5 75.5t-52.5 148.5h192q0 -22 11 -37.5t28.5 -23t38.5 -7.5q31 0 53.5 15t22.5 40q0 12 -6.5 21.5t-14.5 15.5t-25.5 12.5t-29.5 10t-37 9.5h-3q-28 8 -43 11.5t-42.5 13.5t-42.5 19t-35.5 25t-31 34.5 t-18.5 45t-8 58.5q0 81 48 132.5t134 67.5v65h150v-66q42 -8 75 -26t56 -44.5t34.5 -61.5t11.5 -77h-186q0 19 -9.5 32.5t-25 19.5t-34.5 6q-27 0 -46.5 -11t-19.5 -31q0 -10 3.5 -17.5t12.5 -14t17 -10.5t24.5 -9.5t26 -8t31.5 -7.5q29 -8 44 -12t43.5 -14.5t44 -20t37 -26 t32.5 -35t19 -45.5t8 -59z" />
<glyph unicode="%" horiz-adv-x="866" d="M197 345q-76 0 -123.5 46.5t-47.5 120.5t47.5 120t123.5 46q77 0 124.5 -46t47.5 -120t-48 -120.5t-124 -46.5zM165 0l400 665h132l-401 -665h-131zM197 461q22 0 36.5 14.5t14.5 36.5q0 11 -4 20.5t-10.5 16.5t-16 10.5t-20.5 3.5q-14 0 -25.5 -6.5t-18 -18t-6.5 -26.5 q0 -22 14 -36.5t36 -14.5zM669 -11q-76 0 -123.5 46.5t-47.5 120t47.5 120t123.5 46.5t124 -46.5t48 -120t-48 -120t-124 -46.5zM669 104q22 0 36.5 14.5t14.5 36.5q0 23 -14 37.5t-37 14.5q-11 0 -20 -4t-16 -10.5t-10.5 -16t-3.5 -21.5q0 -8 2.5 -16t7 -14.5t10.5 -11 t14 -7t16 -2.5z" />
<glyph unicode="&#x26;" horiz-adv-x="663" d="M669 0h-183q-18 19 -34 37q-86 -52 -192 -52q-101 0 -164.5 57t-63.5 149q0 45 18 84t42.5 64t61.5 49q-39 55 -52.5 90.5t-13.5 69.5q0 82 60 129t152 47q90 0 150 -47t60 -129q0 -34 -11.5 -63.5t-34.5 -53.5t-45.5 -41t-55.5 -37q33 -40 85 -99q18 39 21 81h152 q-5 -115 -67 -203q75 -85 115 -132zM300 594q-23 0 -38 -14t-15 -37q0 -29 34 -81q23 13 37.5 24.5t24 26.5t9.5 30q0 23 -15 37t-37 14zM275 132q38 0 75 18q-63 71 -108 124q-42 -36 -42 -77q0 -29 20.5 -47t54.5 -18z" />
<glyph unicode="'" horiz-adv-x="264" d="M53 432v270h158v-270h-158z" />
<glyph unicode="(" horiz-adv-x="372" d="M181 -164q-69 100 -107 223t-38 257q0 270 145 482h198q-65 -84 -114 -212t-49 -270q0 -143 48.5 -271t112.5 -209h-196z" />
<glyph unicode=")" horiz-adv-x="372" d="M191 -164h-196q65 81 113 209t48 271q0 142 -49 270t-114 212h198q145 -212 145 -482q0 -134 -38 -257t-107 -223z" />
<glyph unicode="*" horiz-adv-x="431" d="M402 544l-82 -29l58 -67l-96 -81l-67 80l-65 -80l-97 81l57 67l-81 29l41 118l83 -30v90h125v-90l83 30z" />
<glyph unicode="+" horiz-adv-x="547" d="M516 406v-157h-159v-170h-167v170h-159v157h159v166h167v-166h159z" />
<glyph unicode="," horiz-adv-x="285" d="M59 -175v92q39 4 59.5 26.5t20.5 56.5h-87v173h181v-158q0 -81 -47.5 -132t-126.5 -58z" />
<glyph unicode="-" horiz-adv-x="475" d="M54 192v169h367v-169h-367z" />
<glyph unicode="." horiz-adv-x="284" d="M52 0v173h180v-173h-180z" />
<glyph unicode="/" horiz-adv-x="539" d="M18 -84l307 845h195l-307 -845h-195z" />
<glyph unicode="0" horiz-adv-x="660" d="M330 -18q-88 0 -154 43t-101.5 122t-35.5 185q0 159 79 254t212 95t212 -95t79 -254q0 -160 -79.5 -255t-211.5 -95zM329.5 141q52.5 0 81 49t28.5 141t-28.5 142t-80.5 50q-53 0 -81 -49.5t-28 -141.5t28 -141.5t80.5 -49.5z" />
<glyph unicode="1" horiz-adv-x="377" d="M30 665h277v-665h-179v514h-98v151z" />
<glyph unicode="2" horiz-adv-x="565" d="M337 158h185v-158h-495v40q141 167 200.5 241.5t81.5 113.5t22 69q0 27 -16 43.5t-41 16.5q-12 0 -21.5 -2.5t-16.5 -8.5t-12 -13.5t-8 -18t-3 -22.5v-13h-175v13q0 101 62.5 162t170.5 61q106 0 172.5 -59t66.5 -153q0 -64 -34.5 -128t-138.5 -184z" />
<glyph unicode="3" horiz-adv-x="567" d="M373 421q72 -18 114.5 -73t42.5 -131q0 -102 -71 -167t-180 -65q-107 0 -174.5 63.5t-70.5 167.5h170q2 -36 22.5 -57t52.5 -21q35 0 56.5 22.5t21.5 59t-23 57.5t-62 21h-107v37l109 178h-224v152h457v-31z" />
<glyph unicode="4" horiz-adv-x="586" d="M562 268v-149h-61v-119h-170v119h-320v33l213 513h177l-165 -397h107l39 147h119v-147h61z" />
<glyph unicode="5" horiz-adv-x="564" d="M279 438q112 0 181.5 -62t69.5 -160q0 -101 -69.5 -166t-178.5 -65t-178 64.5t-69 165.5h170q0 -34 21.5 -55.5t55.5 -21.5q33 0 54 22t21 56q0 18 -6 33t-16.5 25.5t-26 16t-33.5 5.5h-207l-17 22l37 347h395v-152h-257l-9 -75h62z" />
<glyph unicode="6" horiz-adv-x="583" d="M338 449q65 0 116.5 -27.5t80 -77.5t28.5 -113q0 -72 -33 -128t-93 -87t-137 -31q-118 0 -191.5 68t-73.5 177q0 102 76 229l122 206h192q-23 -40 -67.5 -114t-63.5 -106q21 4 44 4zM299 137q41 0 67 26t26 68t-26 68t-67 26q-40 0 -66.5 -26t-26.5 -68q0 -28 12 -49 t33.5 -33t47.5 -12z" />
<glyph unicode="7" horiz-adv-x="550" d="M24 665h511v-26l-252 -639h-188l204 509h-275v156z" />
<glyph unicode="8" horiz-adv-x="602" d="M476 352q88 -57 88 -156q0 -94 -73 -152.5t-190.5 -58.5t-190 58.5t-72.5 152.5q0 100 88 156q-70 57 -70 137q0 56 31 100t86.5 68.5t128 24.5t128 -24t86 -68t30.5 -101q0 -81 -70 -137zM301.5 550q-22.5 0 -40 -8.5t-27 -24t-9.5 -34.5q0 -29 21.5 -47.5t55 -18.5 t54.5 18.5t21 47.5q0 19 -9.5 34.5t-26.5 24t-39.5 8.5zM301.5 123q40.5 0 64.5 22t24 57q0 23 -10.5 41t-31 28t-47 10t-47 -10t-31.5 -28t-11 -41q0 -35 24.5 -57t65 -22z" />
<glyph unicode="9" horiz-adv-x="583" d="M284 682q117 0 190.5 -68.5t73.5 -176.5q0 -101 -76 -229l-122 -208h-193q23 38 67.5 112.5t65.5 108.5q-21 -3 -44 -3q-100 0 -163 60.5t-63 157.5q0 72 33 128t93.5 87t137.5 31zM284 340q43 0 70.5 26.5t27.5 69.5q0 27 -12.5 49t-35 33.5t-50.5 11.5q-43 0 -70 -26 t-27 -68q0 -43 27 -69.5t70 -26.5z" />
<glyph unicode=":" horiz-adv-x="289" d="M54 361v173h181v-173h-181zM54 0v173h181v-173h-181z" />
<glyph unicode=";" horiz-adv-x="291" d="M56 361v173h180v-173h-180zM62 -175v92q39 4 59 26.5t20 56.5h-87v173h182v-158q0 -81 -47.5 -132t-126.5 -58z" />
<glyph unicode="&#x3c;" horiz-adv-x="522" d="M454 622v-195l-202 -102l202 -100v-195l-430 264v57z" />
<glyph unicode="=" horiz-adv-x="584" d="M57 360v152h469v-152h-469zM57 139v151h469v-151h-469z" />
<glyph unicode="&#x3e;" horiz-adv-x="522" d="M68 622l430 -271v-57l-430 -264v195l202 100l-202 102v195z" />
<glyph unicode="?" horiz-adv-x="559" d="M179 223v19q0 40 8.5 71.5t26.5 54t31 34t37 28.5q21 15 31.5 24t20 25.5t9.5 35.5q0 31 -20 50t-50 19q-14 0 -27.5 -5t-23.5 -14t-16.5 -23t-6.5 -31h-174q0 108 71 168.5t178 60.5q108 0 178.5 -61.5t70.5 -162.5q0 -33 -8 -60t-25.5 -48.5t-30 -33t-36.5 -30.5 q-18 -14 -27 -22t-21 -21.5t-17 -27.5t-5 -31v-19h-174zM175 0v173h180v-173h-180z" />
<glyph unicode="@" horiz-adv-x="1015" d="M509 684q96 0 181.5 -29.5t150 -83.5t102.5 -136t38 -181q0 -113 -60.5 -177t-148.5 -64q-97 0 -140 65q-60 -65 -151 -65q-99 0 -162 64t-63 164t63 163.5t162 63.5q85 0 144 -57l16 26h78v-227q0 -29 15.5 -46t40.5 -17q30 0 50 27.5t20 79.5q0 131 -93 215t-239 84 q-149 0 -246.5 -88t-97.5 -223q0 -87 40 -156t112 -107t163 -38q81 0 155 30v-129q-91 -33 -175 -33q-123 0 -221.5 55.5t-155 154.5t-56.5 223q0 101 38.5 186t104.5 140t152.5 85.5t182.5 30.5zM496 153q38 0 63.5 25t25.5 64q0 25 -11.5 45.5t-32 31.5t-45.5 11 q-38 0 -63 -25t-25 -63.5t25 -63.5t63 -25z" />
<glyph unicode="A" d="M532 0l-39 114h-248l-39 -114h-206l275 700h188l281 -700h-212zM446 265l-77 217l-77 -217h154z" />
<glyph unicode="B" horiz-adv-x="651" d="M510 370q50 -24 78.5 -69t28.5 -102q0 -85 -65 -142t-162 -57h-322v700h316q61 0 110 -23t77 -64t28 -92q0 -46 -24 -86.5t-65 -64.5zM416 489q0 27 -18 44t-48 17h-97v-122h97q20 0 35 7.5t23 21.5t8 32zM358 158q31 0 50 18t19 46t-19 46t-50 18h-105v-128h105z" />
<glyph unicode="C" horiz-adv-x="784" d="M403 -18q-159 0 -265.5 105t-106.5 262q0 158 106.5 263.5t265.5 105.5q138 0 235.5 -83t118.5 -216h-195q-12 36 -35 62.5t-55 41.5t-68 15q-75 0 -123.5 -53.5t-48.5 -135.5q0 -53 22 -95.5t61.5 -66.5t88.5 -24q38 0 70.5 16t55 45t32.5 67h197q-20 -138 -118 -223.5 t-238 -85.5z" />
<glyph unicode="D" horiz-adv-x="745" d="M351 700q159 0 260 -98t101 -251.5t-101.5 -252t-259.5 -98.5h-283v700h283zM342 177q77 0 125 48t48 126q0 77 -47.5 124.5t-125.5 47.5h-81v-346h81z" />
<glyph unicode="E" horiz-adv-x="567" d="M260 167h264v-167h-456v700h448v-167h-256v-103h230v-158h-230v-105z" />
<glyph unicode="F" horiz-adv-x="548" d="M513 526h-251v-112h225v-169h-225v-245h-194v700h445v-174z" />
<glyph unicode="G" horiz-adv-x="803" d="M389 374h384q0 -113 -46 -202.5t-130 -139.5t-192 -50q-162 0 -267.5 104t-105.5 263q0 160 104.5 264.5t266.5 104.5q137 0 239 -78t124 -200h-202q-19 44 -62.5 70.5t-96.5 26.5q-79 0 -127.5 -52t-48.5 -136q0 -54 21.5 -96.5t61.5 -66t93 -23.5q55 0 98.5 24.5 t59.5 65.5h-174v121z" />
<glyph unicode="H" horiz-adv-x="734" d="M472 700h195v-700h-195v269h-210v-269h-194v700h194v-253h210v253z" />
<glyph unicode="I" horiz-adv-x="331" d="M68 0v700h195v-700h-195z" />
<glyph unicode="J" horiz-adv-x="622" d="M289 -18q-121 0 -197 72t-76 186v28h194v-18q0 -40 21.5 -64t57.5 -24q35 0 56.5 24t21.5 64v450h194v-460q0 -114 -75 -186t-197 -72z" />
<glyph unicode="K" horiz-adv-x="677" d="M690 0h-229l-200 309v-309h-193v700h193v-295l185 295h223l-224 -339z" />
<glyph unicode="L" horiz-adv-x="531" d="M263 177h249v-177h-444v700h195v-523z" />
<glyph unicode="M" horiz-adv-x="982" d="M954 0h-194l-55 403l-185 -404h-57l-186 404l-54 -403h-195l106 700h192l165 -381l166 381h193z" />
<glyph unicode="N" horiz-adv-x="760" d="M505 700h187v-700h-159l-278 380v-380h-187v700h168l269 -367v367z" />
<glyph unicode="O" horiz-adv-x="832" d="M417 -18q-169 0 -277.5 103.5t-108.5 264.5t108.5 264.5t277.5 103.5q168 0 276 -103.5t108 -264.5t-108 -264.5t-276 -103.5zM417 162q80 0 131.5 53t51.5 135t-51.5 135t-131.5 53t-132.5 -53t-52.5 -135t52.5 -135t132.5 -53z" />
<glyph unicode="P" horiz-adv-x="645" d="M366 700q112 0 185.5 -71.5t73.5 -181.5t-74 -182t-185 -72h-105v-193h-193v700h298zM343 362q37 0 60.5 23.5t23.5 61.5q0 24 -10.5 43.5t-29.5 30.5t-44 11h-82v-170h82z" />
<glyph unicode="Q" horiz-adv-x="833" d="M833 -95h-205l-79 97q-62 -20 -132 -20q-169 0 -277.5 103.5t-108.5 264.5t108.5 264.5t277.5 103.5q168 0 276 -103.5t108 -264.5q0 -81 -29.5 -150.5t-83.5 -118.5zM232 350q0 -82 52.5 -135t132.5 -53t131.5 53t51.5 135t-51.5 135t-131.5 53t-132.5 -53t-52.5 -135z " />
<glyph unicode="R" horiz-adv-x="676" d="M444 0l-114 214h-69v-214h-193v700h303q75 0 134 -31t92.5 -88t33.5 -129q0 -42 -13 -79.5t-38 -67.5t-60 -50l139 -255h-215zM261 529v-152h88q39 0 62 21t23 55q0 22 -10 39t-29.5 27t-45.5 10h-88z" />
<glyph unicode="S" horiz-adv-x="629" d="M316 -17q-130 0 -206 64.5t-76 178.5h199q0 -36 23.5 -55t58.5 -19q32 0 55.5 16t23.5 43q0 9 -2 15.5t-7.5 12.5t-10.5 10.5t-15.5 9t-17.5 7t-21.5 6.5t-22 6t-24.5 6l-45 12t-44 14t-45 19.5t-37 26.5t-32 36t-19 47t-8 61q0 102 70.5 159.5t195.5 57.5t194.5 -61 t69.5 -168h-193q0 32 -21 48.5t-52 16.5q-28 0 -48 -12t-20 -36q0 -9 4 -17t13 -14.5t17.5 -11t25 -10t27 -8.5t32.5 -8q30 -8 46 -12.5t45.5 -15t46 -20.5t38.5 -27t33.5 -37t20 -48t8.5 -61q0 -111 -77 -171.5t-203 -60.5z" />
<glyph unicode="T" horiz-adv-x="611" d="M593 700v-174h-191v-526h-193v526h-190v174h574z" />
<glyph unicode="U" horiz-adv-x="732" d="M365.5 -18q-134.5 0 -220 80t-85.5 209v429h197v-426q0 -51 30 -81.5t78.5 -30.5t78.5 30.5t30 81.5v426h197v-429q0 -129 -85.5 -209t-220 -80z" />
<glyph unicode="V" horiz-adv-x="724" d="M502 700h219l-268 -700h-179l-274 700h220l143 -435z" />
<glyph unicode="W" horiz-adv-x="1050" d="M839 700h205l-216 -700h-169l-135 338l-131 -338h-170l-219 700h207l113 -403l167 400h67l170 -401z" />
<glyph unicode="X" horiz-adv-x="664" d="M667 0h-219l-115 215l-116 -215h-219l210 364l-198 336h217l105 -198l106 198h215l-197 -339z" />
<glyph unicode="Y" horiz-adv-x="699" d="M692 700l-245 -426v-274h-196v274l-243 426h214l128 -253l128 253h214z" />
<glyph unicode="Z" horiz-adv-x="603" d="M307 180h270v-180h-554v40l259 480h-242v180h525v-44z" />
<glyph unicode="[" horiz-adv-x="363" d="M70 -163v970h259v-142h-97v-685h99v-143h-261z" />
<glyph unicode="\" horiz-adv-x="539" d="M521 -84h-195l-307 845h195z" />
<glyph unicode="]" horiz-adv-x="363" d="M294 -163h-261v143h99v685h-97v142h259v-970z" />
<glyph unicode="^" horiz-adv-x="581" d="M25 339l239 363h54l238 -363h-193l-73 134l-72 -134h-193z" />
<glyph unicode="_" horiz-adv-x="524" d="M0 -200v163h524v-163h-524z" />
<glyph unicode="`" horiz-adv-x="535" d="M351 600h-136l-110 165h189z" />
<glyph unicode="a" horiz-adv-x="692" d="M495 541h138v-540h-143l-16 38q-70 -57 -163 -57q-82 0 -146.5 37t-101 103t-36.5 149q0 125 80 205.5t204 80.5q94 0 165 -58zM335.5 147q52.5 0 86.5 35t34 88t-34 88t-86 35q-53 0 -87 -35t-34 -88t34 -88t86.5 -35z" />
<glyph unicode="b" horiz-adv-x="687" d="M377 557q124 0 203.5 -80.5t79.5 -206.5t-79.5 -207t-203.5 -81q-94 0 -163 58l-18 -40h-137v735h183v-215q61 37 135 37zM352 147q52 0 86.5 35t34.5 88t-34.5 88t-86.5 35t-86.5 -35t-34.5 -88q0 -35 15.5 -63t43 -44t62.5 -16z" />
<glyph unicode="c" horiz-adv-x="636" d="M326 -18q-86 0 -154 37t-106.5 103t-38.5 148.5t38.5 148t106.5 102t154 36.5q75 0 136.5 -30t100.5 -84t49 -125h-181q-12 33 -40.5 52.5t-64.5 19.5q-49 0 -80.5 -33.5t-31.5 -86.5t31.5 -87t80.5 -34q37 0 65.5 21.5t39.5 57.5h183q-16 -110 -95 -178t-193 -68z" />
<glyph unicode="d" horiz-adv-x="687" d="M445 735h184v-735h-138l-17 40q-70 -58 -163 -58q-124 0 -204 81t-80 207t80 207t204 81q74 0 134 -38v215zM336 146q52 0 86.5 35.5t34.5 88.5q0 26 -9.5 49t-25.5 39.5t-38.5 26t-47.5 9.5q-52 0 -86.5 -35.5t-34.5 -88.5t34.5 -88.5t86.5 -35.5z" />
<glyph unicode="e" horiz-adv-x="641" d="M615 275q0 -23 -4 -49h-401q9 -46 37.5 -70t72.5 -24q22 0 41 6t33.5 17.5t23.5 27.5h185q-28 -93 -104.5 -147t-178.5 -54q-126 0 -209.5 82.5t-83.5 205.5q0 82 38 148t105 103t150 37q86 0 153.5 -37.5t104.5 -102t37 -143.5zM320 412q-40 0 -67.5 -21.5t-39.5 -61.5 h219q-25 83 -112 83z" />
<glyph unicode="f" horiz-adv-x="432" d="M420 531v-146h-122v-385h-186v385h-89v146h92v52q0 54 19.5 92.5t58.5 58.5t96 20h130v-142h-83q-20 0 -32 -11.5t-12 -32.5v-37h128z" />
<glyph unicode="g" horiz-adv-x="676" d="M491 540h126v-480q0 -127 -78 -201t-211 -74q-77 0 -137 24.5t-98 71t-51 109.5h180q9 -26 38.5 -40.5t65.5 -14.5q48 0 80 28.5t32 75.5v16q-64 -41 -141 -41q-116 0 -193 77.5t-77 194.5q0 115 77.5 193t192.5 78q97 0 171 -62zM328 167q50 0 82.5 33.5t32.5 85.5 q0 51 -32.5 84t-82.5 33t-82.5 -33t-32.5 -84q0 -52 32.5 -85.5t82.5 -33.5z" />
<glyph unicode="h" horiz-adv-x="645" d="M389 556q93 0 148 -63t55 -168v-325h-186v304q0 94 -70 94q-17 0 -31.5 -5t-25.5 -14t-18.5 -22t-11.5 -30.5t-4 -38.5v-288h-186v735h186v-231q63 52 144 52z" />
<glyph unicode="i" horiz-adv-x="303" d="M60 608v157h183v-157h-183zM59 0v540h186v-540h-186z" />
<glyph unicode="j" horiz-adv-x="315" d="M72 608v157h183v-157h-183zM-42 -206v164h45q68 0 68 72v510h186v-525q0 -104 -60.5 -162.5t-169.5 -58.5h-69z" />
<glyph unicode="k" horiz-adv-x="597" d="M607 0h-219l-135 228v-228h-186v735h186v-407l128 212h209l-168 -257z" />
<glyph unicode="l" horiz-adv-x="303" d="M59 0v735h186v-735h-186z" />
<glyph unicode="m" horiz-adv-x="939" d="M694 556q87 0 140 -60.5t53 -156.5v-339h-186v316q0 83 -60 83q-78 0 -78 -103v-296h-181v316q0 83 -59 83q-38 0 -58 -26.5t-20 -76.5v-296h-186v540h130l27 -58q63 74 158 74q49 0 89 -21t65 -59q20 25 45.5 43t56.5 27.5t64 9.5z" />
<glyph unicode="n" horiz-adv-x="645" d="M385 556q94 0 150.5 -62t56.5 -165v-329h-186v304q0 94 -70 94q-29 0 -49.5 -13t-31 -37.5t-10.5 -59.5v-288h-186v540h130l26 -56q64 72 170 72z" />
<glyph unicode="o" horiz-adv-x="660" d="M330 -18q-132 0 -217.5 81.5t-85.5 206.5q0 126 85.5 207t217.5 81t217.5 -81.5t85.5 -206.5t-86 -206.5t-217 -81.5zM330 149q51 0 83.5 34t32.5 87t-32.5 87t-83.5 34q-34 0 -60.5 -15.5t-41.5 -43t-15 -62.5q0 -53 33 -87t84 -34z" />
<glyph unicode="p" horiz-adv-x="684" d="M374 558q124 0 203.5 -81t79.5 -207t-79.5 -207t-203.5 -81q-72 0 -132 36v-213h-183v735h126l23 -43q70 61 166 61zM349 146q52 0 86.5 35.5t34.5 88.5t-34.5 88.5t-86.5 35.5t-86.5 -35.5t-34.5 -88.5q0 -35 15.5 -63.5t43.5 -44.5t62 -16z" />
<glyph unicode="q" horiz-adv-x="684" d="M500 540h126v-735h-184v213q-60 -36 -132 -36q-124 0 -203.5 81t-79.5 207t79.5 207t203.5 81q96 0 166 -61zM335 146q52 0 86.5 35.5t34.5 88.5q0 26 -9 49t-25 39.5t-38.5 26t-48.5 9.5q-34 0 -62 -16.5t-43.5 -44.5t-15.5 -63q0 -53 34.5 -88.5t86.5 -35.5z" />
<glyph unicode="r" horiz-adv-x="422" d="M361 543h49v-171h-72q-49 0 -71 -23t-22 -74v-275h-186v540h124l29 -60q54 63 149 63z" />
<glyph unicode="s" horiz-adv-x="534" d="M267 -18q-110 0 -173.5 53t-64.5 142h179q0 -28 17 -43t45 -15q14 0 26 4.5t19.5 14.5t7.5 23q0 15 -13.5 25t-30.5 14.5t-48.5 9.5t-53 10t-50.5 17.5t-47 29.5t-31 46t-13 67q0 81 63 129.5t167 48.5q103 0 165.5 -50t63.5 -133h-174q0 17 -7.5 28.5t-20 17t-29.5 5.5 q-23 0 -36.5 -11t-13.5 -29q0 -8 3 -14t10.5 -10.5t13.5 -7.5t19.5 -6t21.5 -4.5t25 -4.5q21 -4 29.5 -5.5t29.5 -6.5t31 -8.5t27.5 -11.5t26.5 -16t21.5 -20.5t18.5 -26.5t10.5 -33.5t4.5 -41.5q0 -85 -65.5 -136t-173.5 -51z" />
<glyph unicode="t" horiz-adv-x="451" d="M351 163h72v-163h-128q-90 0 -141 51.5t-51 141.5v204h-99v43l242 258h38v-158h136v-143h-131v-172q0 -29 16.5 -45.5t45.5 -16.5z" />
<glyph unicode="u" horiz-adv-x="635" d="M318 -18q-120 0 -193 68.5t-73 181.5v308h186v-300q0 -43 21 -67t58.5 -24t59 24.5t21.5 66.5v300h186v-308q0 -75 -33 -131.5t-93.5 -87.5t-139.5 -31z" />
<glyph unicode="v" horiz-adv-x="607" d="M407 540h199l-217 -540h-169l-220 540h204l102 -320z" />
<glyph unicode="w" horiz-adv-x="867" d="M672 540h190l-172 -540h-150l-107 242l-104 -242h-150l-177 540h195l82 -284l128 282h50l134 -284z" />
<glyph unicode="x" horiz-adv-x="580" d="M586 0h-208l-88 160l-91 -160h-205l179 280l-166 260h205l78 -136l82 136h202l-167 -255z" />
<glyph unicode="y" horiz-adv-x="620" d="M423 540h200l-226 -516q-56 -126 -116 -175.5t-163 -49.5h-64v160h51q53 0 76 17t42 69l-223 495h202l114 -297z" />
<glyph unicode="z" horiz-adv-x="516" d="M281 165h206v-165h-467v28l207 348h-188v164h446v-30z" />
<glyph unicode="{" horiz-adv-x="389" d="M275 439q0 -45 -22 -80t-59 -49q36 -14 57.5 -49t21.5 -79v-206h77v-147h-117q-54 0 -92.5 38t-38.5 93v231q0 22 -15.5 38t-39.5 16h-20v130h20q24 0 39.5 15.5t15.5 39.5v232q0 54 38.5 92t92.5 38h117v-146h-75v-207z" />
<glyph unicode="|" horiz-adv-x="317" d="M70 -190v1030h177v-1030h-177z" />
<glyph unicode="}" horiz-adv-x="389" d="M341 375h21v-130h-21q-23 0 -39 -16t-16 -38v-231q0 -55 -38.5 -93t-92.5 -38h-116v147h76v206q0 44 21.5 79t58.5 49q-37 14 -59.5 49t-22.5 80v207h-74v146h116q54 0 92.5 -38t38.5 -92v-232q0 -24 16 -39.5t39 -15.5z" />
<glyph unicode="~" horiz-adv-x="589" d="M387 223q-19 0 -37 3.5t-34 10t-25.5 12t-24.5 14.5q-36 20 -52 20q-17 0 -29 -12t-12 -32v-14h-124v18q0 82 41.5 130.5t117.5 48.5q25 0 49 -7t35 -13.5t31 -19.5q39 -23 57 -23q19 0 29.5 12t10.5 34v16h125v-18q0 -84 -42 -132t-116 -48z" />
<glyph unicode="&#xa1;" horiz-adv-x="305" d="M243 540v-173h-180v173h180zM240 307v-487h-174v487h174z" />
<glyph unicode="&#xa2;" horiz-adv-x="619" d="M593 217q-13 -84 -66.5 -142.5t-134.5 -78.5v-73h-149v74q-94 22 -150.5 93t-56.5 168q0 98 56.5 169t150.5 93v83h149v-83q81 -19 134 -76.5t65 -140.5h-174q-11 31 -38 49t-60 18q-30 0 -54 -14.5t-37.5 -40t-13.5 -57.5q0 -49 30 -81t75 -32q34 0 61 19.5t38 52.5h175 z" />
<glyph unicode="&#xa3;" horiz-adv-x="614" d="M424 209h153v-209h-538v107l60 27v126h-47v127h47v95q0 92 63.5 147t169.5 55q102 0 161.5 -54.5t59.5 -147.5v-15h-160v12q0 30 -16.5 48t-44.5 18t-45 -18t-17 -48v-92h120v-127h-120v-118h154v67z" />
<glyph unicode="&#xa4;" horiz-adv-x="623" d="M589 129l-104 -104l-71 72q-49 -25 -103 -25t-103 25l-69 -71l-105 104l69 70q-25 50 -25 104q0 58 27 109l-67 69l103 104l72 -71q47 22 98 22q51 1 99 -23l71 72l104 -104l-69 -69q28 -51 28 -109q0 -54 -26 -104zM221 305q0 -24 12.5 -44.5t33 -33t44.5 -12.5 q37 1 62.5 27t25.5 63q0 36 -26 62t-62 26q-37 0 -63.5 -25.5t-26.5 -62.5z" />
<glyph unicode="&#xa5;" horiz-adv-x="695" d="M671 665l-226 -363h148v-98h-157v-44h157v-92h-157v-68h-177v68h-158v92h158v44h-158v98h147l-224 363h190l133 -239l134 239h190z" />
<glyph unicode="&#xa6;" horiz-adv-x="317" d="M70 400v440h177v-440h-177zM70 -190v450h177v-450h-177z" />
<glyph unicode="&#xa7;" horiz-adv-x="541" d="M504 319q0 -76 -60 -127q37 -39 37 -96q0 -80 -56 -124t-153 -44q-98 0 -156 48t-58 131h154q0 -24 18 -36.5t43 -12.5q14 0 25.5 4t18.5 12t7 20q0 11 -6.5 19.5t-22.5 15.5t-29 11t-38 10q-24 6 -37.5 9.5t-36.5 11.5t-36.5 16t-30.5 21t-26.5 28.5t-16.5 37.5t-7 49 q0 80 62 128q-38 38 -38 95q0 40 14.5 72t41.5 53.5t65 32.5t86 11q97 0 154.5 -48.5t57.5 -131.5h-153q0 24 -17.5 36.5t-42.5 12.5q-21 0 -35 -9.5t-14 -26.5q0 -21 23 -32.5t73 -23.5q24 -6 37.5 -10t36.5 -12t36.5 -16t30.5 -21t26.5 -28.5t16 -37.5t6.5 -48zM195 331 q0 -24 26 -38.5t77 -26.5q6 -1 12 -4q38 17 37 51q0 18 -15 31.5t-36 21t-57 15.5l-6 3q-39 -17 -38 -53z" />
<glyph unicode="&#xa8;" horiz-adv-x="629" d="M432 763v-157h-186v157h186z" />
<glyph unicode="&#xa9;" horiz-adv-x="831" d="M416 -15q-165 0 -272.5 102.5t-107.5 261.5t107.5 262t272.5 103q107 0 194 -46.5t136 -130t49 -188.5t-49 -188.5t-136 -129.5t-194 -46zM415.5 84q118.5 0 195 74t76.5 191q0 58 -20.5 107.5t-56 84.5t-86 54.5t-108.5 19.5q-79 0 -141 -33.5t-96.5 -94.5t-34.5 -138 q0 -117 76.5 -191t195 -74zM417 161q-86 0 -142 53.5t-56 135.5q0 84 55.5 137t142.5 53q50 0 90.5 -19.5t66 -55t31.5 -82.5h-120q-7 21 -25.5 33.5t-42.5 12.5q-21 0 -38.5 -10t-27 -28t-9.5 -41q0 -33 21 -55t54 -22q24 0 42.5 13.5t26.5 36.5h121q-11 -73 -63 -117.5 t-127 -44.5z" />
<glyph unicode="&#xaa;" horiz-adv-x="457" d="M314 709h88v-331h-90l-12 27q-43 -36 -101 -36q-73 0 -121.5 49.5t-48.5 125.5q0 49 22 88.5t61 62t87 22.5q59 0 102 -37zM217 471q31 0 51.5 20.5t20.5 52.5q0 31 -20.5 51.5t-51.5 20.5q-20 0 -36.5 -9.5t-25.5 -26t-9 -36.5q0 -21 9 -38t25.5 -26t36.5 -9z" />
<glyph unicode="&#xab;" horiz-adv-x="724" d="M183 45l-157 213v18l157 213h207l-160 -222l160 -222h-207zM489 45l-157 213v18l157 213h207l-160 -222l160 -222h-207z" />
<glyph unicode="&#xac;" horiz-adv-x="608" d="M44 446h503v-326h-171v164h-332v162z" />
<glyph unicode="&#xad;" horiz-adv-x="475" d="M54 192v169h367v-169h-367z" />
<glyph unicode="&#xae;" horiz-adv-x="512" d="M256 714q95 0 157.5 -62.5t62.5 -158t-62.5 -158.5t-157.5 -63t-158 63t-63 158t63 158t158 63zM256 340q66 0 109.5 43.5t43.5 109.5q0 67 -43.5 110t-109.5 43q-67 0 -110 -43.5t-43 -109.5t43.5 -109.5t109.5 -43.5zM349 521q0 -40 -31 -60l38 -68h-69l-30 56h-18v-56 h-65v204h99q34 0 55 -21t21 -55zM239 542v-40h23q22 0 22 20t-22 20h-23z" />
<glyph unicode="&#xaf;" horiz-adv-x="510" d="M87 615v129h335v-129h-335z" />
<glyph unicode="&#xb0;" horiz-adv-x="389" d="M194 512q-71 0 -121 48t-50 116q0 45 23 82.5t62 59.5t86 22q71 0 121.5 -48t50.5 -116t-50.5 -116t-121.5 -48zM194.5 623q23.5 0 39 15.5t15.5 38t-15.5 37.5t-39 15t-39 -15t-15.5 -37.5t15.5 -38t39 -15.5z" />
<glyph unicode="&#xb1;" horiz-adv-x="577" d="M204 214v135h-151v157h151v142h168v-142h151v-157h-151v-135h-168zM51 138h476v-150h-476v150z" />
<glyph unicode="&#xb4;" horiz-adv-x="539" d="M94 600l57 165h190l-110 -165h-137z" />
<glyph unicode="&#xb6;" horiz-adv-x="720" d="M683 700v-163h-92v-624h-158v624h-72v-624h-158v341q-80 20 -128.5 79t-48.5 137q0 100 70.5 165t181.5 65h405z" />
<glyph unicode="&#xb7;" horiz-adv-x="289" d="M54 273v173h181v-173h-181z" />
<glyph unicode="&#xb8;" horiz-adv-x="478" d="M206 -33q29 -3 51 -15.5t34 -33t12 -47.5q0 -46 -36 -74.5t-93 -28.5h-77v81h64q14 0 22.5 7.5t8.5 20t-8.5 20.5t-22.5 8h-46l-9 12l39 139h86z" />
<glyph unicode="&#xba;" horiz-adv-x="428" d="M214 370q-81 0 -133 49t-52 125t52 124.5t133 48.5t132.5 -48.5t51.5 -125t-51.5 -125t-132.5 -48.5zM214 475q19 0 34.5 8.5t24 24.5t8.5 36q0 29 -19 48.5t-48 19.5q-30 0 -49 -19.5t-19 -48.5q0 -31 19 -50t49 -19z" />
<glyph unicode="&#xbb;" horiz-adv-x="724" d="M235 45h-207l160 222l-160 222h207l157 -213v-18zM541 45h-207l160 222l-160 222h207l157 -213v-18z" />
<glyph unicode="&#xbc;" horiz-adv-x="773" d="M482 732h126l-404 -760h-126zM83 298v304h-64v98h184v-402h-120zM753 165v-95h-37v-70h-111v70h-194v26l128 306h115l-98 -237h58l28 90h74v-90h37z" />
<glyph unicode="&#xbd;" horiz-adv-x="794" d="M482 732h126l-404 -760h-126zM83 298v304h-64v98h184v-402h-120zM654 101h110v-101h-308v32q120 138 152 181.5t32 67.5q0 16 -8.5 25.5t-22.5 9.5q-16 0 -25 -10.5t-9 -27.5v-10h-113v7q0 66 39 102.5t108 36.5q43 0 76.5 -16t52 -45t18.5 -67q0 -39 -22.5 -78 t-79.5 -107z" />
<glyph unicode="&#xbe;" horiz-adv-x="873" d="M581 732h126l-404 -760h-126zM330 430q0 -41 -20 -73t-55 -50.5t-80 -18.5q-67 0 -108.5 39t-42.5 102h105q0 -13 6 -24t16.5 -17t24 -6t24 6.5t16.5 17.5t6 25q0 22 -14 34.5t-37 12.5h-65v24l62 103h-134v95h282v-19l-80 -128q43 -11 68.5 -44t25.5 -79zM853 165v-95 h-37v-70h-111v70h-195v26l129 306h115l-98 -237h57l28 90h75v-90h37z" />
<glyph unicode="&#xbf;" horiz-adv-x="551" d="M379 540v-173h-181v173h181zM375 317v-19q0 -40 -8.5 -71.5t-26.5 -54t-31 -34t-37 -28.5q-16 -12 -24.5 -18.5t-18.5 -17t-14.5 -22.5t-4.5 -27t6 -28.5t15.5 -22t22 -13.5t26.5 -5q31 0 52.5 19.5t21.5 53.5h175q0 -108 -71 -168.5t-178 -60.5q-109 0 -179.5 61.5 t-70.5 162.5q0 33 8 60t25.5 48.5t30.5 33t37 30.5t36 29.5t23 30.5t11 42v19h174z" />
<glyph unicode="&#xc0;" d="M307 762l-129 155h195l70 -155h-136zM532 0l-39 114h-248l-39 -114h-206l275 700h188l281 -700h-212zM446 265l-77 217l-77 -217h154z" />
<glyph unicode="&#xc1;" d="M558 917l-128 -155h-137l71 155h194zM532 0l-39 114h-248l-39 -114h-206l275 700h188l281 -700h-212zM446 265l-77 217l-77 -217h154z" />
<glyph unicode="&#xc2;" d="M368 833l-71 -71h-145l118 155h196l119 -155h-145zM532 0l-39 114h-248l-39 -114h-206l275 700h188l281 -700h-212zM446 265l-77 217l-77 -217h154z" />
<glyph unicode="&#xc3;" d="M441 758q-19 0 -39 6t-29 10.5t-29 15.5q-30 17 -43 17q-14 1 -23.5 -9.5t-9.5 -26.5v-10h-101v13q0 67 33.5 106.5t95.5 39.5q43 0 93 -31q30 -20 46 -20q15 0 23.5 10t8.5 27v11h102v-13q0 -34 -9 -61t-25.5 -46t-40 -29t-53.5 -10zM532 0l-39 114h-248l-39 -114h-206 l275 700h188l281 -700h-212zM446 265l-77 217l-77 -217h154z" />
<glyph unicode="&#xc4;" d="M156 762v155h171v-155h-171zM411 762v155h171v-155h-171zM532 0l-39 114h-248l-39 -114h-206l275 700h188l281 -700h-212zM446 265l-77 217l-77 -217h154z" />
<glyph unicode="&#xc5;" d="M368 734q-41 0 -73 16.5t-50 47.5t-18 70q0 60 39.5 97t101.5 37t101.5 -37t39.5 -97q0 -30 -10.5 -55t-29 -42t-44.5 -27t-57 -10zM368 815q16 0 28.5 6.5t19.5 19t7 27.5q0 23 -15.5 38t-39.5 15t-39.5 -15t-15.5 -38t16 -38t39 -15zM532 0l-39 114h-248l-39 -114h-206 l275 700h188l281 -700h-212zM446 265l-77 217l-77 -217h154z" />
<glyph unicode="&#xc6;" horiz-adv-x="948" d="M647 167h258v-167h-444v113h-206l-63 -113h-213l402 700h515v-166h-249v-104h223v-158h-223v-105zM338 262h123v222z" />
<glyph unicode="&#xc7;" horiz-adv-x="784" d="M759 291q-18 -127 -103 -210t-209 -96l-4 -16q42 -9 65.5 -34.5t23.5 -64.5q0 -30 -15.5 -54t-46 -38.5t-69.5 -14.5h-91v85h75q15 0 24 8t9 21q0 8 -4 14.5t-11.5 10t-17.5 3.5h-51l-8 10l17 72q-90 13 -161 63t-111 128t-40 171q0 158 106.5 263.5t265.5 105.5 q138 0 235.5 -83t118.5 -216h-195q-18 54 -60.5 86.5t-97.5 32.5q-75 0 -123.5 -53.5t-48.5 -135.5q0 -53 22 -95.5t61.5 -66.5t88.5 -24q38 0 70.5 16t55 45t32.5 67h197z" />
<glyph unicode="&#xc8;" horiz-adv-x="567" d="M232 762l-128 155h194l71 -155h-137zM260 167h264v-167h-456v700h448v-167h-256v-103h230v-158h-230v-105z" />
<glyph unicode="&#xc9;" horiz-adv-x="567" d="M483 917l-128 -155h-136l70 155h194zM260 167h264v-167h-456v700h448v-167h-256v-103h230v-158h-230v-105z" />
<glyph unicode="&#xca;" horiz-adv-x="567" d="M293 833l-71 -71h-145l118 155h196l119 -155h-145zM260 167h264v-167h-456v700h448v-167h-256v-103h230v-158h-230v-105z" />
<glyph unicode="&#xcb;" horiz-adv-x="567" d="M81 762v155h171v-155h-171zM336 762v155h171v-155h-171zM260 167h264v-167h-456v700h448v-167h-256v-103h230v-158h-230v-105z" />
<glyph unicode="&#xcc;" horiz-adv-x="331" d="M235 762h-140l-86 155h190zM68 0v700h195v-700h-195z" />
<glyph unicode="&#xcd;" horiz-adv-x="331" d="M94 762l56 155h189l-111 -155h-134zM68 0v700h195v-700h-195z" />
<glyph unicode="&#xce;" horiz-adv-x="331" d="M165 829l-59 -67h-141l108 155h184l109 -155h-141zM68 0v700h195v-700h-195z" />
<glyph unicode="&#xcf;" horiz-adv-x="331" d="M-38 762v155h170v-155h-170zM198 762v155h169v-155h-169zM68 0v700h195v-700h-195z" />
<glyph unicode="&#xd0;" horiz-adv-x="781" d="M387 700q159 0 260 -98t101 -251.5t-101.5 -252t-259.5 -98.5h-283v273h-84v155h84v272h283zM378 177q51 0 90.5 21.5t61 61t21.5 91.5q0 77 -47.5 124.5t-125.5 47.5h-81v-95h117v-155h-117v-96h81z" />
<glyph unicode="&#xd1;" horiz-adv-x="760" d="M282 771v-10h-101v13q0 44 14.5 77t43.5 51t70 18q43 0 93 -31q31 -20 47 -20q15 0 23.5 10t8.5 27v11h102v-13q0 -68 -34.5 -107t-93.5 -39q-19 0 -39.5 6t-29 10.5t-28.5 15.5q-31 17 -43 17q-15 1 -24 -9.5t-9 -26.5zM505 700h187v-700h-159l-278 380v-380h-187v700 h168l269 -367v367z" />
<glyph unicode="&#xd2;" horiz-adv-x="832" d="M355 762l-128 155h194l71 -155h-137zM417 -18q-169 0 -277.5 103.5t-108.5 264.5t108.5 264.5t277.5 103.5q168 0 276 -103.5t108 -264.5t-108 -264.5t-276 -103.5zM417 162q80 0 131.5 53t51.5 135t-51.5 135t-131.5 53t-132.5 -53t-52.5 -135t52.5 -135t132.5 -53z" />
<glyph unicode="&#xd3;" horiz-adv-x="832" d="M342 762l70 155h195l-129 -155h-136zM417 -18q-169 0 -277.5 103.5t-108.5 264.5t108.5 264.5t277.5 103.5q168 0 276 -103.5t108 -264.5t-108 -264.5t-276 -103.5zM417 162q80 0 131.5 53t51.5 135t-51.5 135t-131.5 53t-132.5 -53t-52.5 -135t52.5 -135t132.5 -53z" />
<glyph unicode="&#xd4;" horiz-adv-x="832" d="M633 762h-144l-73 71l-71 -71h-145l119 155h195zM417 -18q-169 0 -277.5 103.5t-108.5 264.5t108.5 264.5t277.5 103.5q168 0 276 -103.5t108 -264.5t-108 -264.5t-276 -103.5zM417 162q80 0 131.5 53t51.5 135t-51.5 135t-131.5 53t-132.5 -53t-52.5 -135q0 -54 24 -97 t66 -67t95 -24z" />
<glyph unicode="&#xd5;" horiz-adv-x="832" d="M489 758q-18 0 -38.5 6t-29 10.5t-28.5 15.5q-31 17 -44 17q-14 1 -23.5 -9.5t-9.5 -26.5v-10h-101v13q0 44 15 77t44 51t70 18q43 0 93 -31q30 -20 46 -20q15 0 24 10t9 27v11h101v-13q0 -68 -34 -107t-94 -39zM417 -18q-169 0 -277.5 103.5t-108.5 264.5t108.5 264.5 t277.5 103.5q168 0 276 -103.5t108 -264.5t-108 -264.5t-276 -103.5zM417 162q80 0 131.5 53t51.5 135t-51.5 135t-131.5 53t-132.5 -53t-52.5 -135q0 -54 23.5 -97t66 -67t95.5 -24z" />
<glyph unicode="&#xd6;" horiz-adv-x="832" d="M204 762v155h171v-155h-171zM459 762v155h171v-155h-171zM417 -18q-169 0 -277.5 103.5t-108.5 264.5t108.5 264.5t277.5 103.5q168 0 276 -103.5t108 -264.5t-108 -264.5t-276 -103.5zM417 162q80 0 131.5 53t51.5 135t-51.5 135t-131.5 53t-132.5 -53t-52.5 -135 t52.5 -135t132.5 -53z" />
<glyph unicode="&#xd7;" horiz-adv-x="564" d="M529 459l-132 -133l132 -133l-116 -113l-131 131l-131 -131l-115 113l131 133l-131 133l116 114l130 -131l130 131z" />
<glyph unicode="&#xd8;" horiz-adv-x="851" d="M679 627q65 -51 102.5 -126t37.5 -158q0 -158 -107.5 -259.5t-275.5 -101.5q-63 0 -126 19l-36 -60h-188l84 133q-65 51 -102 125t-37 156q0 158 108 260.5t276 102.5q62 0 123 -18l34 57h188zM416 546q-83 0 -136.5 -54.5t-53.5 -138.5q0 -70 45 -122l182 311 q-18 4 -37 4zM433 154q55 0 99 24t68.5 68t24.5 100q0 71 -47 124l-183 -312q19 -4 38 -4z" />
<glyph unicode="&#xd9;" horiz-adv-x="732" d="M305 762l-129 155h194l71 -155h-136zM365.5 -18q-134.5 0 -220 80t-85.5 209v429h197v-426q0 -33 14 -59t38.5 -39.5t56.5 -13.5q48 0 78 30.5t30 81.5v426h197v-429q0 -129 -85.5 -209t-220 -80z" />
<glyph unicode="&#xda;" horiz-adv-x="732" d="M291 762l71 155h194l-129 -155h-136zM365.5 -18q-134.5 0 -220 80t-85.5 209v429h197v-426q0 -51 30 -81.5t78.5 -30.5t78.5 30.5t30 81.5v426h197v-429q0 -129 -85.5 -209t-220 -80z" />
<glyph unicode="&#xdb;" horiz-adv-x="732" d="M583 762h-145l-73 71l-71 -71h-145l119 155h195zM365.5 -18q-134.5 0 -220 80t-85.5 209v429h197v-426q0 -51 30 -81.5t78.5 -30.5t78.5 30.5t30 81.5v426h197v-429q0 -129 -85.5 -209t-220 -80z" />
<glyph unicode="&#xdc;" horiz-adv-x="732" d="M153 762v155h171v-155h-171zM408 762v155h171v-155h-171zM365.5 -18q-134.5 0 -220 80t-85.5 209v429h197v-426q0 -51 30 -81.5t78.5 -30.5t78.5 30.5t30 81.5v426h197v-429q0 -129 -85.5 -209t-220 -80z" />
<glyph unicode="&#xdd;" horiz-adv-x="699" d="M540 917l-128 -155h-137l71 155h194zM692 700l-245 -426v-274h-196v274l-243 426h214l128 -253l128 253h214z" />
<glyph unicode="&#xde;" horiz-adv-x="653" d="M366 604q112 0 185.5 -71.5t73.5 -181.5q0 -73 -33.5 -131t-93 -90.5t-132.5 -32.5h-105v-97h-193v700h193v-96h105zM343 265q37 0 60.5 24t23.5 61.5t-23.5 61t-60.5 23.5h-82v-170h82z" />
<glyph unicode="&#xdf;" horiz-adv-x="641" d="M509 389q104 -57 104 -170q0 -100 -75 -159.5t-201 -59.5h-44v156h42q45 0 69.5 20t24.5 56t-25 56t-71 20h-36v145h28q40 0 64.5 21t24.5 54q0 13 -4 24.5t-11 20.5t-17.5 15.5t-23 10t-27.5 3.5q-41 0 -63.5 -27.5t-22.5 -74.5v-500h-186v477q0 128 71.5 200.5 t197.5 72.5q114 0 185 -59t71 -154q0 -89 -75 -148z" />
<glyph unicode="&#xe0;" horiz-adv-x="692" d="M420 600h-137l-110 165h190zM495 541h138v-540h-143l-16 38q-70 -57 -163 -57q-82 0 -146.5 37t-101 103t-36.5 149q0 125 80 205.5t204 80.5q94 0 165 -58zM336 147q52 0 86 35t34 88t-34 88t-86 35q-53 0 -87 -35t-34 -88q0 -26 9 -49t25 -39t38.5 -25.5t48.5 -9.5z " />
<glyph unicode="&#xe1;" horiz-adv-x="692" d="M508 765l-110 -165h-137l57 165h190zM495 541h138v-540h-143l-16 38q-70 -57 -163 -57q-82 0 -146.5 37t-101 103t-36.5 149q0 125 80 205.5t204 80.5q94 0 165 -58zM336 147q52 0 86 35t34 88t-34 88t-86 35q-53 0 -87 -35t-34 -88q0 -26 9 -49t25 -39t38.5 -25.5 t48.5 -9.5z" />
<glyph unicode="&#xe2;" horiz-adv-x="692" d="M343 676l-71 -76h-145l118 165h196l120 -165h-145zM495 541h138v-540h-143l-16 38q-70 -57 -163 -57q-82 0 -146.5 37t-101 103t-36.5 149q0 125 80 205.5t204 80.5q94 0 165 -58zM336 147q52 0 86 35t34 88t-34 88t-86 35q-53 0 -87 -35t-34 -88q0 -26 9 -49t25 -39 t38.5 -25.5t48.5 -9.5z" />
<glyph unicode="&#xe3;" horiz-adv-x="692" d="M244 615v-10h-101v12q0 44 14.5 76.5t43.5 50.5t70 18q44 0 93 -31q30 -19 47 -19q15 0 23.5 9.5t8.5 26.5v11h102v-12q0 -45 -15.5 -78t-44.5 -50t-68 -17q-19 0 -39 5.5t-29.5 10.5l-28.5 15q-31 17 -43 17q-15 0 -24 -10t-9 -25zM495 541h138v-540h-144l-15 38 q-70 -57 -163 -57q-124 0 -204 81.5t-80 207.5q0 125 80 205.5t204 80.5q94 0 165 -58zM335.5 147q52.5 0 86.5 35t34 88t-34 88t-87 35q-52 0 -86 -35t-34 -88t34 -88t86.5 -35z" />
<glyph unicode="&#xe4;" horiz-adv-x="692" d="M299 763v-157h-168v157h168zM553 763v-157h-168v157h168zM495 541h138v-540h-143l-16 38q-70 -57 -163 -57q-82 0 -146.5 37t-101 103t-36.5 149q0 125 80 205.5t204 80.5q94 0 165 -58zM335.5 147q52.5 0 86.5 35t34 88t-34 88t-86 35q-53 0 -87 -35t-34 -88t34 -88 t86.5 -35z" />
<glyph unicode="&#xe5;" horiz-adv-x="692" d="M338 581q-39 0 -69 16t-47 44.5t-17 65.5q0 28 10 51.5t27.5 39.5t42 25.5t53.5 9.5q58 0 95 -35t37 -91t-37 -91t-95 -35zM337.5 757q-22.5 0 -37 -14t-14.5 -36t14.5 -36t37 -14t37 14t14.5 36t-14.5 36t-37 14zM495 541h138v-540h-143l-16 38q-70 -57 -163 -57 q-82 0 -146.5 37t-101 103t-36.5 149q0 125 80 205.5t204 80.5q94 0 165 -58zM335.5 147q52.5 0 86.5 35t34 88t-34 88t-86 35q-53 0 -87 -35t-34 -88t34 -88t86.5 -35z" />
<glyph unicode="&#xe6;" horiz-adv-x="1066" d="M1040 273q0 -19 -4 -48h-406q10 -44 39.5 -67.5t74.5 -23.5q34 0 60.5 13t39.5 36h185q-27 -90 -101.5 -145t-170.5 -55q-103 0 -173 64l-5 -47h-107l-6 47q-70 -65 -169 -65q-56 0 -106.5 22.5t-86 60.5t-56.5 91t-21 114q0 124 77.5 205t192.5 81q101 0 171 -67l8 51 h99l7 -49q70 65 175 65q122 0 202.5 -81t80.5 -202zM745 412q-42 0 -70.5 -21.5t-40.5 -61.5h223q-12 40 -41 61.5t-71 21.5zM334.5 147q51.5 0 85.5 35t34 87.5t-34 87.5t-85.5 35t-86 -35t-34.5 -87.5t34.5 -87.5t86 -35z" />
<glyph unicode="&#xe7;" horiz-adv-x="636" d="M614 228q-15 -104 -87 -171t-178 -74l-4 -16q44 -5 70 -30.5t26 -64.5q0 -47 -35.5 -75.5t-92.5 -28.5h-77v81h64q14 0 22.5 7.5t8.5 20t-8.5 20.5t-22.5 8h-46l-9 12l19 71q-106 19 -171.5 96t-65.5 187q0 82 38.5 147.5t106.5 102t154 36.5q114 0 192.5 -66t93.5 -173 h-181q-12 33 -40.5 52.5t-64.5 19.5q-49 0 -80.5 -33.5t-31.5 -86.5t31.5 -87t80.5 -34q37 0 65.5 21.5t39.5 57.5h183z" />
<glyph unicode="&#xe8;" horiz-adv-x="641" d="M398 600h-137l-109 165h189zM615 275q0 -23 -4 -49h-401q9 -46 37.5 -70t72.5 -24q33 0 59 13.5t39 37.5h185q-28 -93 -104.5 -147t-178.5 -54q-126 0 -209.5 82.5t-83.5 205.5q0 82 38 148t105 103t150 37q86 0 153.5 -37.5t104.5 -102t37 -143.5zM320 412 q-40 0 -67.5 -21.5t-39.5 -61.5h219q-25 83 -112 83z" />
<glyph unicode="&#xe9;" horiz-adv-x="641" d="M486 765l-110 -165h-137l57 165h190zM615 275q0 -23 -4 -49h-401q9 -46 37.5 -70t72.5 -24q33 0 59 13.5t39 37.5h185q-28 -93 -104.5 -147t-178.5 -54q-126 0 -209.5 82.5t-83.5 205.5q0 82 38 148t105 103t150 37q86 0 153.5 -37.5t104.5 -102t37 -143.5zM320 412 q-40 0 -67.5 -21.5t-39.5 -61.5h219q-25 83 -112 83z" />
<glyph unicode="&#xea;" horiz-adv-x="641" d="M321 676l-71 -76h-145l118 165h196l120 -165h-145zM615 275q0 -23 -4 -49h-401q9 -46 37.5 -70t72.5 -24q33 0 59 13.5t39 37.5h185q-28 -93 -104.5 -147t-178.5 -54q-126 0 -209.5 82.5t-83.5 205.5q0 82 38 148t105 103t150 37q86 0 153.5 -37.5t104.5 -102t37 -143.5z M320 412q-40 0 -67.5 -21.5t-39.5 -61.5h219q-25 83 -112 83z" />
<glyph unicode="&#xeb;" horiz-adv-x="641" d="M277 763v-157h-168v157h168zM531 763v-157h-168v157h168zM615 275q0 -23 -4 -49h-401q9 -46 37.5 -70t72.5 -24q33 0 59 13.5t39 37.5h185q-28 -93 -104.5 -147t-178.5 -54q-126 0 -209.5 82.5t-83.5 205.5q0 82 38 148t105 103t150 37q86 0 153.5 -37.5t104.5 -102 t37 -143.5zM320 412q-40 0 -67.5 -21.5t-39.5 -61.5h219q-25 83 -112 83z" />
<glyph unicode="&#xec;" horiz-adv-x="303" d="M222 600h-140l-86 165h190zM59 0v540h186v-540h-186z" />
<glyph unicode="&#xed;" horiz-adv-x="303" d="M74 600l36 165h190l-86 -165h-140zM59 0v540h186v-540h-186z" />
<glyph unicode="&#xee;" horiz-adv-x="303" d="M151 672l-59 -72h-141l108 165h184l109 -165h-141zM59 0v540h186v-540h-186z" />
<glyph unicode="&#xef;" horiz-adv-x="303" d="M-44 604v161h170v-161h-170zM190 604v161h170v-161h-170zM59 0v540h186v-540h-186z" />
<glyph unicode="&#xf0;" horiz-adv-x="658" d="M434 726q188 -117 188 -397q0 -159 -81 -253t-220 -94q-130 0 -212 77.5t-82 202.5q0 113 74.5 187.5t189.5 74.5q89 0 156 -60q-14 105 -121 154l-86 -86l-62 57l57 57q-43 7 -90 7v145q118 0 209 -33l68 67l61 -57zM321 147q49 0 81.5 32.5t32.5 82.5q0 51 -32 83.5 t-82 32.5q-49 0 -81.5 -33t-32.5 -83q0 -32 14.5 -58.5t41 -41.5t58.5 -15z" />
<glyph unicode="&#xf1;" horiz-adv-x="645" d="M231 615v-10h-102v12q0 67 34 106t95 39q44 0 93 -31q30 -19 46 -19q15 0 24 9.5t9 26.5v11h101v-12q0 -45 -15 -78t-44 -50t-68 -17q-19 0 -39 5.5t-29.5 10.5l-28.5 15q-31 17 -44 17q-14 0 -23 -10t-9 -25zM385 556q94 0 150.5 -62t56.5 -165v-329h-186v304 q0 94 -70 94q-29 0 -49.5 -13t-31 -37.5t-10.5 -59.5v-288h-186v540h130l26 -56q64 72 170 72z" />
<glyph unicode="&#xf2;" horiz-adv-x="660" d="M407 600h-137l-110 165h190zM330 -18q-132 0 -217.5 81.5t-85.5 206.5q0 126 85.5 207t217.5 81t217.5 -81.5t85.5 -206.5t-86 -206.5t-217 -81.5zM330 149q51 0 83.5 34t32.5 87t-32.5 87t-83.5 34q-34 0 -60.5 -15.5t-41.5 -43t-15 -62.5q0 -53 33 -87t84 -34z" />
<glyph unicode="&#xf3;" horiz-adv-x="660" d="M248 600l57 165h190l-110 -165h-137zM330 -18q-132 0 -217.5 81.5t-85.5 206.5q0 126 85.5 207t217.5 81t217.5 -81.5t85.5 -206.5t-86 -206.5t-217 -81.5zM330 149q51 0 83.5 34t32.5 87t-32.5 87t-83.5 34t-84 -34t-33 -87t33 -87t84 -34z" />
<glyph unicode="&#xf4;" horiz-adv-x="660" d="M548 600h-145l-73 76l-71 -76h-145l118 165h196zM330 -18q-132 0 -217.5 81.5t-85.5 206.5q0 126 85.5 207t217.5 81t217.5 -81.5t85.5 -206.5t-86 -206.5t-217 -81.5zM330 149q51 0 83.5 34t32.5 87t-32.5 87t-83.5 34t-84 -34t-33 -87t33 -87t84 -34z" />
<glyph unicode="&#xf5;" horiz-adv-x="660" d="M404 602q-19 0 -39 5.5t-29.5 10.5l-28.5 15q-31 17 -44 17q-14 0 -23 -10t-9 -25v-10h-101v12q0 44 14.5 76.5t43.5 50.5t70 18q44 0 93 -31q30 -19 47 -19q15 0 23.5 9.5t8.5 26.5v11h102v-12q0 -68 -34.5 -106.5t-93.5 -38.5zM330 -18q-132 0 -217.5 81.5t-85.5 206.5 q0 126 85.5 207t217.5 81t217.5 -81.5t85.5 -206.5t-86 -206.5t-217 -81.5zM330 149q51 0 83.5 34t32.5 87t-32.5 87t-83.5 34t-84 -34t-33 -87t33 -87t84 -34z" />
<glyph unicode="&#xf6;" horiz-adv-x="660" d="M117 606v157h169v-157h-169zM372 606v157h168v-157h-168zM330 -18q-132 0 -217.5 81.5t-85.5 206.5q0 126 85.5 207t217.5 81t217.5 -81.5t85.5 -206.5t-86 -206.5t-217 -81.5zM330 149q51 0 83.5 34t32.5 87t-32.5 87t-83.5 34q-34 0 -60.5 -15.5t-41.5 -43t-15 -62.5 q0 -53 33 -87t84 -34z" />
<glyph unicode="&#xf7;" horiz-adv-x="540" d="M269.5 446q-36.5 0 -61.5 25.5t-25 61.5t25 61t61.5 25t62 -25t25.5 -61t-25.5 -61.5t-62 -25.5zM32 252v148h476v-148h-476zM269.5 32q-36.5 0 -61.5 25.5t-25 61.5t25 61t62 25q36 0 61.5 -25t25.5 -61t-25.5 -61.5t-62 -25.5z" />
<glyph unicode="&#xf8;" horiz-adv-x="670" d="M528 495q54 -38 84 -97t30 -131q0 -125 -84 -205t-216 -80q-48 0 -93 13l-31 -56h-140l61 107q-53 39 -82 97t-29 129q0 125 84.5 205t216.5 80q45 0 87 -11l30 55h140zM329 395q-55 0 -89.5 -34.5t-34.5 -88.5q0 -47 27 -79l113 201q-8 1 -16 1zM342 144q55 0 89 34.5 t34 88.5q0 48 -27 81l-114 -203q8 -1 18 -1z" />
<glyph unicode="&#xf9;" horiz-adv-x="635" d="M395 600h-136l-110 165h190zM318 -18q-120 0 -193 68.5t-73 181.5v308h186v-300q0 -43 21 -67t58.5 -24t59 24.5t21.5 66.5v300h186v-308q0 -75 -33 -131.5t-93.5 -87.5t-139.5 -31z" />
<glyph unicode="&#xfa;" horiz-adv-x="635" d="M237 600l56 165h190l-110 -165h-136zM318 -18q-120 0 -193 68.5t-73 181.5v308h186v-300q0 -43 21 -67t58.5 -24t59 24.5t21.5 66.5v300h186v-308q0 -75 -33 -131.5t-93.5 -87.5t-139.5 -31z" />
<glyph unicode="&#xfb;" horiz-adv-x="635" d="M537 600h-146l-72 76l-72 -76h-145l119 165h196zM318 -18q-120 0 -193 68.5t-73 181.5v308h186v-300q0 -43 21 -67t58.5 -24t59 24.5t21.5 66.5v300h186v-308q0 -75 -33 -131.5t-93.5 -87.5t-139.5 -31z" />
<glyph unicode="&#xfc;" horiz-adv-x="635" d="M106 606v157h168v-157h-168zM360 606v157h169v-157h-169zM318 -18q-120 0 -193 68.5t-73 181.5v308h186v-300q0 -43 21 -67t58.5 -24t59 24.5t21.5 66.5v300h186v-308q0 -113 -73 -181.5t-193 -68.5z" />
<glyph unicode="&#xfd;" horiz-adv-x="620" d="M478 765l-110 -165h-136l56 165h190zM423 540h200l-226 -516q-56 -126 -116 -175.5t-163 -49.5h-64v160h51q53 0 76 17t42 69l-223 495h202l114 -297z" />
<glyph unicode="&#xfe;" horiz-adv-x="686" d="M377 557q123 0 202.5 -81t79.5 -206t-79 -206.5t-200 -81.5q-77 0 -138 38v-215h-183v927h183v-214q61 39 135 39zM351 146q52 0 86.5 35.5t34.5 88.5q0 34 -15.5 62.5t-43.5 44.5t-62 16q-52 0 -86.5 -35t-34.5 -88q0 -35 15.5 -63.5t43.5 -44.5t62 -16z" />
<glyph unicode="&#xff;" horiz-adv-x="620" d="M101 606v157h168v-157h-168zM355 606v157h169v-157h-169zM423 540h200l-226 -516q-56 -126 -116 -175.5t-163 -49.5h-64v160h51q53 0 76 17t42 69l-223 495h202l114 -297z" />
<glyph unicode="&#x152;" horiz-adv-x="971" d="M928 167v-167h-412q-57 -18 -119 -18q-103 0 -186.5 46.5t-131.5 131t-48 191.5q0 104 47 188t131 131t188 47q63 0 119 -17h404v-167h-250v-103h224v-158h-224v-105h258zM232 351q0 -88 51.5 -138t137.5 -50q28 0 60 6v363q-36 7 -64 7q-80 0 -132.5 -53t-52.5 -135z " />
<glyph unicode="&#x153;" horiz-adv-x="1051" d="M1025 273q0 -22 -4 -48h-402q9 -45 38 -68.5t74 -23.5q33 0 58.5 13.5t39.5 38.5h185q-29 -93 -105 -148t-178 -55q-117 0 -196 82q-80 -82 -205 -82q-133 0 -218 81t-85 207t85 206.5t218 80.5q125 0 205 -81q78 81 196 81q128 0 211 -80.5t83 -203.5zM731 410 q-85 0 -109 -81h220q-25 81 -111 81zM330 149q51 0 83.5 33.5t32.5 87t-32.5 87t-83.5 33.5t-84 -33.5t-33 -87t33 -87t84 -33.5z" />
<glyph unicode="&#x178;" horiz-adv-x="699" d="M138 762v155h171v-155h-171zM392 762v155h172v-155h-172zM692 700l-245 -426v-274h-196v274l-243 426h214l128 -253l128 253h214z" />
<glyph unicode="&#x2c6;" horiz-adv-x="600" d="M533 600h-145l-73 76l-71 -76h-145l119 165h195z" />
<glyph unicode="&#x2dc;" horiz-adv-x="600" d="M369 602q-19 0 -39 5.5t-29 10.5t-29 15q-30 17 -43 17q-14 0 -23.5 -10t-9.5 -25v-10h-101v12q0 44 14.5 76.5t44 50.5t70.5 18q43 0 93 -31q29 -19 46 -19q15 0 23.5 9.5t8.5 26.5v11h102v-12q0 -68 -34 -106.5t-94 -38.5z" />
<glyph unicode="&#x2000;" horiz-adv-x="501" />
<glyph unicode="&#x2001;" horiz-adv-x="1002" />
<glyph unicode="&#x2002;" horiz-adv-x="501" />
<glyph unicode="&#x2003;" horiz-adv-x="1002" />
<glyph unicode="&#x2004;" horiz-adv-x="334" />
<glyph unicode="&#x2005;" horiz-adv-x="250" />
<glyph unicode="&#x2006;" horiz-adv-x="167" />
<glyph unicode="&#x2007;" horiz-adv-x="167" />
<glyph unicode="&#x2008;" horiz-adv-x="125" />
<glyph unicode="&#x2009;" horiz-adv-x="200" />
<glyph unicode="&#x200a;" horiz-adv-x="55" />
<glyph unicode="&#x2010;" horiz-adv-x="475" d="M54 192v169h367v-169h-367z" />
<glyph unicode="&#x2011;" horiz-adv-x="475" d="M54 192v169h367v-169h-367z" />
<glyph unicode="&#x2012;" horiz-adv-x="475" d="M54 192v169h367v-169h-367z" />
<glyph unicode="&#x2013;" horiz-adv-x="621" d="M54 192v169h513v-169h-513z" />
<glyph unicode="&#x2014;" horiz-adv-x="827" d="M54 192v169h718v-169h-718z" />
<glyph unicode="&#x2018;" horiz-adv-x="277" d="M220 762v-92q-39 -3 -59.5 -26t-20.5 -57h87v-173h-181v159q0 80 47.5 131t126.5 58z" />
<glyph unicode="&#x2019;" horiz-adv-x="270" d="M58 369v92q20 2 35.5 9t25 18.5t14.5 25.5t5 30h-87v173h181v-158q0 -54 -21.5 -95.5t-61 -65.5t-91.5 -29z" />
<glyph unicode="&#x201a;" horiz-adv-x="285" d="M59 -175v92q39 4 59.5 26.5t20.5 56.5h-87v173h181v-158q0 -81 -47.5 -132t-126.5 -58z" />
<glyph unicode="&#x201c;" horiz-adv-x="522" d="M220 762v-92q-39 -3 -59.5 -26t-20.5 -57h87v-173h-181v159q0 80 47.5 131t126.5 58zM464 762v-92q-39 -3 -59 -26t-20 -57h87v-173h-182v159q0 80 48 131t126 58z" />
<glyph unicode="&#x201d;" horiz-adv-x="515" d="M58 369v92q20 2 35.5 9t25 18.5t14.5 25.5t5 30h-87v173h181v-158q0 -54 -21.5 -95.5t-61 -65.5t-91.5 -29zM303 369v92q26 3 44 14.5t26.5 29t8.5 39.5h-87v173h182v-158q0 -81 -47.5 -132t-126.5 -58z" />
<glyph unicode="&#x201e;" horiz-adv-x="529" d="M59 -175v92q39 4 59.5 26.5t20.5 56.5h-87v173h181v-158q0 -81 -47.5 -132t-126.5 -58zM304 -175v92q26 3 44 14.5t26.5 29t8.5 39.5h-87v173h182v-158q0 -54 -22 -95.5t-61.5 -65.5t-90.5 -29z" />
<glyph unicode="&#x2022;" horiz-adv-x="406" d="M203 157q-41 0 -74 19t-51.5 52t-18.5 73q0 63 41 104t103 41t103 -41t41 -104q0 -61 -41 -102.5t-103 -41.5z" />
<glyph unicode="&#x2026;" horiz-adv-x="758" d="M52 0v173h180v-173h-180zM289 0v173h180v-173h-180zM526 0v173h180v-173h-180z" />
<glyph unicode="&#x202f;" horiz-adv-x="200" />
<glyph unicode="&#x2039;" horiz-adv-x="418" d="M183 45l-157 213v18l157 213h207l-160 -222l160 -222h-207z" />
<glyph unicode="&#x203a;" horiz-adv-x="418" d="M235 45h-207l160 222l-160 222h207l157 -213v-18z" />
<glyph unicode="&#x205f;" horiz-adv-x="250" />
<glyph unicode="&#x20ac;" horiz-adv-x="661" d="M347 193q54 -59 148 -59q55 0 100 17v-152q-54 -17 -113 -17q-113 0 -199 56.5t-125 152.5h-128l29 115h74q-1 14 -1 28v21h-100l29 115h95q38 100 126 159t199 59q78 0 151 -29l-37 -144q-45 19 -102 19q-95 0 -150 -66h238l-29 -113h-253v-21q0 -15 1 -28h239l-29 -113 h-163z" />
<glyph unicode="&#x2122;" horiz-adv-x="655" d="M28 631v69h225v-69h-74v-181h-77v181h-74zM610 450h-75l-19 132l-67 -132h-20l-67 132l-18 -132h-76l39 250h70l62 -128l63 128h70z" />
<glyph unicode="&#x25fc;" horiz-adv-x="540" d="M0 540h540v-540h-540v540z" />
</font>
</defs>
</svg>
