<?xml version="1.0" standalone="no"?>
<!DOCTYPE svg PUBLIC "-//W3C//DTD SVG 1.1//EN" "http://www.w3.org/Graphics/SVG/1.1/DTD/svg11.dtd" >
<svg xmlns="http://www.w3.org/2000/svg" xmlns:xlink="http://www.w3.org/1999/xlink" version="1.1">
<metadata></metadata>
<defs>
<font id="aachenregular" horiz-adv-x="1062" >
<font-face units-per-em="2048" ascent="1638" descent="-410" />
<missing-glyph horiz-adv-x="512" />
<glyph horiz-adv-x="0" />
<glyph unicode="&#xd;" horiz-adv-x="512" />
<glyph unicode=" "  horiz-adv-x="512" />
<glyph unicode="&#x09;" horiz-adv-x="512" />
<glyph unicode="&#xa0;" horiz-adv-x="512" />
<glyph unicode="!" horiz-adv-x="602" d="M123 1219q0 72 49 118.5t129 46.5t129 -43t49 -114v-33q-6 -41 -12 -84l-90 -694h-154l-90 700q-4 27 -7 59.5t-3 43.5zM139 143q0 66 46 112t112 46q68 0 113 -45t45 -113q0 -66 -46.5 -111.5t-111.5 -45.5q-66 0 -112 46t-46 111z" />
<glyph unicode="&#x22;" horiz-adv-x="784" d="M76 1288q0 104 133 105q133 0 133 -105v-26q-6 -31 -14 -74l-62 -348h-116l-60 348q-2 6 -8 46t-6 54zM444 1288q0 104 131 105q133 0 134 -105q0 -16 -3.5 -40.5t-9.5 -59.5l-61 -348h-117l-59 348q-10 63 -12.5 75.5t-2.5 24.5z" />
<glyph unicode="#" horiz-adv-x="1269" d="M82 383l31 160h206l54 280h-207l29 160h206l74 383h189l-76 -383h209l65 383h191l-74 -383h207l-29 -160h-207l-53 -280h207l-31 -160h-207l-71 -383h-191l76 383h-201l-73 -383h-189l72 383h-207zM504 543h207l55 280h-209z" />
<glyph unicode="$" d="M90 158v325h299v-51q0 -162 141 -162q61 0 102.5 39t41.5 99q0 61 -49.5 100t-220.5 104.5t-239.5 142t-68.5 226.5q0 299 312 367v112h256v-112q98 -23 162.5 -53t134.5 -85v-307h-289v35q0 164 -137 164q-63 0 -102.5 -33t-39.5 -86t41 -86t216 -93.5t250 -142 t75 -251.5q0 -158 -85 -261.5t-235 -130.5v-118h-256v116q-102 23 -161.5 49.5t-147.5 92.5z" />
<glyph unicode="%" horiz-adv-x="1370" d="M41 856v336q0 195 248 194q239 1 239 -194v-328q0 -188 -247 -188q-240 0 -240 180zM225 907q0 -72 60 -71q59 0 59 75v246q0 70 -59 70q-60 0 -60 -74v-246zM391 0l426 1366h162l-422 -1366h-166zM842 160v336q0 195 248 194q239 1 239 -194v-328q0 -188 -246 -188 q-242 0 -241 180zM1028 211q0 -72 59 -72q57 0 58 76v246q0 70 -60 69q-57 1 -57 -75v-244z" />
<glyph unicode="&#x26;" horiz-adv-x="1085" d="M51 406q0 258 211 329q-188 86 -188 297q0 174 118.5 270.5t335.5 96.5q125 0 228.5 -30.5t226.5 -102.5v-242h-303q-4 41 -41 69.5t-88 28.5q-63 0 -105.5 -40t-42.5 -103q0 -66 40 -101.5t114 -35.5h131v45h295v-45h55v-228h-55v-614h-559q-127 0 -192.5 28.5 t-106.5 92t-57.5 133.5t-16.5 152zM377 451q0 -90 40 -128t134 -38h137v329h-133q-178 0 -178 -163z" />
<glyph unicode="'" horiz-adv-x="415" d="M76 1288q0 104 133 105q133 0 133 -105v-26q-6 -31 -14 -74l-62 -348h-116l-60 348q-2 6 -8 46t-6 54z" />
<glyph unicode="(" horiz-adv-x="677" d="M82 498q0 250 104.5 493.5t305.5 456.5l145 -102q-117 -186 -183.5 -407.5t-66.5 -434.5q0 -111 22.5 -245t55.5 -234.5t62.5 -164t90.5 -173.5l-147 -107q-188 211 -288.5 447.5t-100.5 470.5z" />
<glyph unicode=")" horiz-adv-x="677" d="M41 -317q117 186 182.5 406t65.5 433q0 410 -230 819l148 107q190 -213 289.5 -448.5t99.5 -469.5q0 -250 -104.5 -493.5t-305.5 -456.5z" />
<glyph unicode="*" horiz-adv-x="849" d="M76 1079l47 148l225 -76v235h144v-243l235 84l49 -148l-237 -69l151 -193l-129 -92l-139 205l-135 -205l-129 92l149 193z" />
<glyph unicode="+" horiz-adv-x="1064" d="M96 588v246h301v313h273v-313h301v-246h-301v-316h-273v316h-301z" />
<glyph unicode="," horiz-adv-x="516" d="M109 135q0 61 40.5 104.5t100.5 43.5q68 0 109.5 -44t41.5 -116q0 -90 -57.5 -170t-155.5 -127l-47 70q70 53 99 106q-61 8 -96 43t-35 90z" />
<glyph unicode="-" horiz-adv-x="438" d="M0 449v215h438v-215h-438z" />
<glyph unicode="." horiz-adv-x="516" d="M113 121q0 61 43 104t104 43t104.5 -43t43.5 -104t-43 -104.5t-105 -43.5q-61 0 -104 43t-43 105z" />
<glyph unicode="/" horiz-adv-x="833" d="M-14 -354l561 1720h223l-559 -1720h-225z" />
<glyph unicode="0" d="M72 317v701q0 195 113.5 286t353.5 91q225 0 316 -74t113.5 -133t22.5 -170v-682q0 -186 -113.5 -275.5t-353.5 -89.5q-225 0 -316 73t-113.5 127t-22.5 146zM385 424q0 -176 147 -176q145 0 146 186v512q0 172 -148 172q-145 0 -145 -184v-510z" />
<glyph unicode="1" d="M315 0v221q45 14 58.5 39t13.5 98v650q0 74 -13.5 99.5t-58.5 37.5v221h385v-1008q0 -74 14.5 -100.5t59.5 -36.5v-221h-459z" />
<glyph unicode="2" d="M70 0v313q0 78 14 127t42 82t55.5 56.5t105.5 85.5l65 51l68 51l65 51q98 76 124 98.5t42.5 48t16.5 56.5q0 55 -37 88t-99 33q-139 0 -139 -156v-94h-305v369q113 66 217.5 94t235.5 28q236 0 342 -88t106 -286q0 -117 -34.5 -181.5t-149.5 -156.5l-47 -39l-289 -223 q-43 -35 -58.5 -63t-15.5 -71l-2 -18h158q80 0 97.5 25.5t17.5 146.5h331v-428h-927z" />
<glyph unicode="3" d="M66 88v334h315v-27q0 -147 139 -147q68 0 108 44t40 122q0 160 -176 159h-187v234h180q184 0 185 160q0 66 -43 108.5t-111 42.5q-61 0 -98 -39t-37 -100v-18h-301v311q221 123 450 123q221 0 340 -94.5t119 -274.5q0 -123 -55 -196.5t-184 -120.5q250 -63 249 -336 q0 -197 -120.5 -299.5t-352.5 -102.5q-119 0 -215 24.5t-245 92.5z" />
<glyph unicode="4" d="M39 360v295l477 711h389v-745h90v-261h-90v-22q0 -59 14.5 -84t55.5 -33v-221h-459v221q39 8 57.5 35t18.5 76v28h-553zM342 621h250v378z" />
<glyph unicode="5" d="M68 98v351h313v-19q0 -82 29.5 -132t115.5 -50q90 0 119 52t29 159q0 115 -31 160t-108 45q-68 0 -127 -62h-340v764h899v-371h-297q0 59 -31 84t-100 25h-158v-246q117 41 225 41q113 0 207 -49t133 -116.5t49.5 -120t10.5 -148.5q0 -170 -29 -266.5t-147.5 -162 t-305.5 -65.5q-117 0 -221 29t-235 98z" />
<glyph unicode="6" d="M66 377v616q0 106 20 171t100 148t328 83q256 -1 463 -103v-293h-305q-12 133 -140 134q-68 0 -110.5 -41t-42.5 -107v-174q70 37 125 51.5t133 14.5q231 0 291.5 -106.5t69 -159t8.5 -179.5q0 -137 -16.5 -204.5t-69 -127t-159 -94.5t-245.5 -35q-297 0 -363.5 103.5 t-76.5 154t-10 148.5zM375 438q0 -106 34.5 -153t116.5 -47q78 0 113 45t35 149q0 106 -33 149.5t-113 43.5t-116.5 -43t-36.5 -144z" />
<glyph unicode="7" d="M66 905v461h938v-236l-490 -1130h-336l475 1104h-139q-98 0 -127 -31t-29 -141v-27h-292z" />
<glyph unicode="8" d="M43 369q0 143 47 224t154 116q-102 45 -140 111.5t-38 201.5q0 373 466 373q223 0 345 -93.5t122 -291.5q0 -127 -39 -192.5t-139 -106.5q104 -45 151.5 -125t47.5 -217q0 -397 -502 -398q-475 0 -475 398zM375 418q0 -188 160 -189q72 0 112.5 49.5t40.5 135.5 q1 188 -153 188q-160 0 -160 -184zM389 965q0 -154 146 -154q63 0 102 43t39 113t-36.5 110.5t-102.5 40.5q-147 0 -148 -153z" />
<glyph unicode="9" d="M63 909q0 164 18.5 237t105.5 161t370 88q229 0 335.5 -90.5t106.5 -288.5v-656q0 -201 -110.5 -295t-343.5 -94q-127 0 -232.5 24.5t-226.5 82.5v317h305v-18q0 -66 39 -105t105 -39q152 0 151 177v165q-70 -39 -131 -55t-131 -16q-104 0 -185 37t-116 95t-47.5 117.5 t-12.5 155.5zM395 952q0 -188 148 -188q147 0 147 188q0 176 -147 176t-148 -176z" />
<glyph unicode=":" horiz-adv-x="516" d="M113 121q0 61 43 104t104 43t104.5 -43t43.5 -104t-43 -104.5t-105 -43.5q-61 0 -104 43t-43 105zM113 692q0 61 43 104.5t104 43.5t104.5 -43t43.5 -105q0 -61 -43 -104t-105 -43q-61 0 -104 43t-43 104z" />
<glyph unicode=";" horiz-adv-x="516" d="M109 135q0 61 40.5 104.5t100.5 43.5q68 0 109.5 -44t41.5 -116q0 -90 -57.5 -170t-155.5 -127l-47 70q70 53 99 106q-61 8 -96 43t-35 90zM111 692q0 61 43 104.5t104 43.5t104.5 -43t43.5 -105q0 -61 -43.5 -104t-104.5 -43t-104 43t-43 104z" />
<glyph unicode="&#x3c;" horiz-adv-x="1024" d="M68 573v224l886 450v-262l-606 -301l606 -303v-262z" />
<glyph unicode="=" horiz-adv-x="1064" d="M96 410v219h875v-219h-875zM96 791v219h875v-219h-875z" />
<glyph unicode="&#x3e;" horiz-adv-x="1024" d="M68 119v264l606 301l-606 301v262l886 -452v-224z" />
<glyph unicode="?" horiz-adv-x="1017" d="M68 932v319q190 131 436 131q215 0 329.5 -96t114.5 -280t-57 -239.5t-107.5 -92.5t-131.5 -89.5t-100.5 -80t-19.5 -90.5h-292q0 195 20.5 235.5t170 144t184 138.5t34.5 82q0 57 -37 92t-98 35q-123 0 -139 -92q-8 -31 -8 -117h-299zM236 133q0 66 45.5 112t111.5 46 q68 0 113 -45t45 -113t-45 -113t-113 -45q-66 0 -111.5 46.5t-45.5 111.5z" />
<glyph unicode="@" horiz-adv-x="1169" d="M102 444v504q0 240 115 342.5t387 102.5q162 0 254 -29t150.5 -94.5t79 -135t20.5 -186.5v-586h-350q-115 0 -166 14.5t-90 63.5t-39 185q0 156 55 213t211 57h148q0 152 -66 215.5t-217 63.5q-133 0 -207 -72t-74 -207v-451q0 -135 73 -207.5t208 -72.5h377l26 -164 h-393q-162 0 -254 28.5t-149.5 94t-78 136.5t-20.5 185zM741 637q0 -113 84 -113h49v226h-49q-47 0 -65.5 -25t-18.5 -88z" />
<glyph unicode="A" horiz-adv-x="1056" d="M10 0v221q33 14 49.5 42t28.5 91l197 1012h473l209 -1022q12 -61 27.5 -84.5t52.5 -38.5v-221h-467v221q70 6 69 62l-6 45l-10 59h-264l-13 -59l-4 -37q0 -35 17.5 -52.5t56.5 -17.5v-221h-416zM406 586h184l-98 446z" />
<glyph unicode="B" horiz-adv-x="1146" d="M80 0v221q45 12 58.5 38t13.5 99v650q0 76 -12.5 101.5t-59.5 35.5v221h536q94 0 145.5 -6t123 -34t127 -116t55.5 -213q0 -244 -201 -301q223 -49 224 -325q0 -217 -103.5 -294t-306.5 -77h-600zM465 260h141q92 0 131 39t39 127t-40 126t-132 38h-139v-330zM465 825 h141q78 0 113 33t35 111q0 137 -156 137h-133v-281z" />
<glyph unicode="C" horiz-adv-x="1052" d="M68 367v663q0 365 452 365q242 0 451 -101v-385h-297v39q0 170 -144 170q-150 0 -149 -190v-496q0 -98 35 -141t114 -43q78 0 111 42t33 142v111h297v-465q-133 -57 -236.5 -82t-212.5 -25q-295 0 -364.5 103.5t-79.5 150.5t-10 142z" />
<glyph unicode="D" horiz-adv-x="1124" d="M78 0v221q45 12 58.5 37.5t13.5 99.5v650q0 76 -12.5 101.5t-59.5 35.5v221h526q125 0 187.5 -14.5t164 -91t101.5 -299.5v-476q0 -184 -41 -281.5t-121 -140.5t-152.5 -53t-230.5 -10h-434zM463 272h102q113 0 145.5 33t32.5 144v475q0 106 -33.5 140t-140.5 34h-106 v-826z" />
<glyph unicode="E" horiz-adv-x="1110" d="M78 0v221q45 12 58.5 38t13.5 99v650q0 76 -12.5 101.5t-59.5 35.5v221h964v-422h-294v17v10q0 74 -29 100.5t-111 26.5h-145v-277h379v-231h-379v-330h133q100 0 126 29.5t26 148.5v15h294v-453h-964z" />
<glyph unicode="F" horiz-adv-x="1048" d="M84 0v221q45 14 58.5 40t13.5 97v650q0 74 -10.5 95t-55.5 38l-6 4v221h942v-424h-278v19q0 78 -34 107.5t-118 29.5h-127v-279h358v-231h-358v-230q0 -74 13.5 -99.5t58.5 -37.5v-221h-457z" />
<glyph unicode="G" horiz-adv-x="1046" d="M68 336v686q0 158 96 264.5t375 106.5q231 -1 432 -101v-364h-299l2 35q0 72 -37 112.5t-105 40.5q-152 0 -151 -180v-508q0 -96 35 -139t114 -43q141 0 142 172v78h-123v219h422v-617q-193 -129 -453 -129q-147 0 -252.5 43t-151.5 119t-46 205z" />
<glyph unicode="H" horiz-adv-x="1214" d="M76 0v221q45 12 58 38t13 99v650q0 76 -12 101.5t-59 35.5v221h456v-221q-43 -10 -57 -37t-14 -100v-189h291v189q0 76 -12.5 101.5t-59.5 35.5v221h457v-221q-43 -10 -57.5 -37t-14.5 -100v-650q0 -74 13.5 -99.5t58.5 -37.5v-221h-457v221q45 12 58.5 38t13.5 99v230 h-291v-230q0 -74 13 -99.5t58 -37.5v-221h-456z" />
<glyph unicode="I" horiz-adv-x="616" d="M78 0v221q45 12 58.5 37.5t13.5 99.5v650q0 76 -12.5 101.5t-59.5 35.5v221h457v-221q-43 -10 -57.5 -37t-14.5 -100v-650q0 -74 13 -99.5t59 -37.5v-221h-457z" />
<glyph unicode="J" horiz-adv-x="622" d="M31 18v205q33 0 63.5 1t49 19.5t24.5 45t6 92.5v627q0 76 -12 101.5t-60 35.5v221h457v-221q-43 -10 -57.5 -37t-14.5 -100v-689q0 -88 -8 -131t-56 -121.5t-216 -78.5h-5q-78 0 -171 30z" />
<glyph unicode="K" horiz-adv-x="1122" d="M76 0v221q45 12 58 38t13 99v650q0 76 -12 101.5t-59 35.5v221h459v-221q-45 -8 -59.5 -35t-14.5 -102v-240l149 233q45 70 55.5 101t10.5 96v168h385v-221q-31 -6 -54.5 -25.5t-56.5 -68.5l-182 -283l223 -426q37 -70 53.5 -88t51.5 -33v-221h-420v147q0 90 -8.5 120 t-59.5 124l-147 273v-306q0 -74 13 -99.5t58 -37.5v-221h-456z" />
<glyph unicode="L" horiz-adv-x="1048" d="M78 0v221q45 12 58.5 38t13.5 99v650q0 76 -12.5 101.5t-59.5 35.5v221h457v-221q-43 -10 -57.5 -37t-14.5 -100v-752h84q119 0 148.5 23.5t29.5 113.5v221h279v-614h-926z" />
<glyph unicode="M" horiz-adv-x="1472" d="M76 0v221q45 12 58 38t13 99v650q0 76 -12 101.5t-59 35.5v221h510l157 -649l156 649h496v-221q-43 -10 -57.5 -37t-14.5 -100v-650q0 -74 13.5 -99.5t58.5 -37.5v-221h-457v221q45 12 58.5 38t13.5 99v537l-238 -895h-151l-222 887v-529q0 -74 13.5 -99.5t58.5 -37.5 v-221h-395z" />
<glyph unicode="N" horiz-adv-x="1220" d="M78 0v221q45 12 58.5 38t13.5 99v650q0 76 -12.5 101.5t-59.5 35.5v221h358l350 -709v351q0 76 -12 101.5t-59 35.5v221h430v-221q-43 -10 -57.5 -37t-14.5 -100v-1008h-287l-350 719v-361q0 -74 13.5 -99.5t58.5 -37.5v-221h-430z" />
<glyph unicode="O" horiz-adv-x="1056" d="M68 326v702q0 367 467 367q297 0 374.5 -116t77.5 -251v-680q0 -98 -14.5 -148t-93 -139.5t-355.5 -89.5q-147 0 -257.5 45t-154.5 116t-44 194zM381 436q0 -100 35 -144t114 -44q143 0 144 174v528q0 168 -144 168q-149 0 -149 -176v-506z" />
<glyph unicode="P" horiz-adv-x="1103" d="M78 0v221q45 12 58.5 38t13.5 99v650q0 76 -12.5 101.5t-59.5 35.5v221h565q168 0 257 -52t128 -145.5t39 -267.5q0 -264 -93 -373.5t-319 -109.5h-192v-60q0 -74 10 -95t57 -40l5 -223h-457zM463 713h106q113 0 149 35.5t36 148.5q0 94 -33 133t-117 39h-141v-356z" />
<glyph unicode="Q" horiz-adv-x="1058" d="M68 326v682q0 82 10 129t79.5 152.5t366.5 105.5q295 0 368 -96.5t84 -144.5t11 -128v-684q0 -86 -14.5 -135t-57.5 -103l37 -26l54 -35l-119 -201q-90 41 -153.5 78t-84.5 60q-66 -8 -127 -9q-262 0 -342 85t-96 137.5t-16 132.5zM381 432q0 -94 35 -139t112 -45 q78 0 112 46t34 155v505q0 164 -146 164q-147 0 -147 -178v-508z" />
<glyph unicode="R" horiz-adv-x="1148" d="M78 0v221q45 12 58.5 38t13.5 99v650q0 76 -12.5 101.5t-59.5 35.5v221h557q190 0 280 -59q72 -43 111 -130t39 -202q0 -141 -49 -216t-166 -106q102 -16 144 -62t42 -147l-2 -88v-16q0 -55 11.5 -79t46.5 -40v-221h-342q-25 72 -25 201v129v57q0 88 -30.5 121t-116.5 33 h-115v-183q0 -74 13 -99.5t59 -37.5v-221h-457zM463 784h121q92 0 130 38t38 128q0 86 -42 121t-147 35h-100v-322z" />
<glyph unicode="S" horiz-adv-x="1058" d="M63 129v342h318v-47q0 -176 151 -176q66 0 107 39t41 102q0 66 -42 103.5t-191.5 97t-189.5 79t-113.5 85t-73.5 243.5q0 188 122.5 293t348.5 105q119 0 232.5 -41t205.5 -117v-322h-307l2 46q0 157 -148 157h-2q-61 0 -100 -34.5t-39 -88.5q0 -61 35 -83.5t68.5 -39 t54.5 -24.5l155 -60q172 -68 234.5 -150.5t62.5 -246.5q0 -195 -125 -307.5t-340 -112.5q-246 0 -467 158z" />
<glyph unicode="T" horiz-adv-x="1124" d="M29 809v557h1067v-557h-252v149q0 86 -25.5 119t-99.5 33v-752q0 -74 13 -99.5t59 -37.5v-221h-457v221q45 12 58.5 38t13.5 99v752q-72 -6 -98.5 -41t-26.5 -119v-141h-252z" />
<glyph unicode="U" horiz-adv-x="1140" d="M59 1145v221h457v-221q-43 -10 -57.5 -37t-14.5 -100v-570q0 -96 35 -139t115 -43q78 0 110.5 42t32.5 142v568q0 76 -12 101.5t-59 35.5v221h417v-221q-43 -10 -57 -36.5t-14 -100.5v-570q0 -127 -8.5 -176t-49.5 -117.5t-143 -115.5t-238 -47q-215 0 -328.5 99 t-113.5 288v77v562q0 76 -12.5 101.5t-59.5 35.5z" />
<glyph unicode="V" horiz-adv-x="1056" d="M10 1145v221h467v-221q-74 0 -74 -64q0 -10 3.5 -27.5t9.5 -39.5l145 -676l133 682q4 14 6 31.5t2 31.5q0 61 -73 62v221h418v-221q-35 -10 -49.5 -30.5t-24.5 -67.5l-203 -1047h-473l-211 1030q-12 61 -27.5 85t-48.5 30z" />
<glyph unicode="W" horiz-adv-x="1538" d="M10 1145v221h457v-221q-66 0 -66 -60l7 -63l102 -563l156 907h266l160 -907l92 573l4 47q0 59 -62 66v221h400v-225q-35 -4 -49.5 -24.5t-24.5 -74.5l-170 -1042h-371l-139 659l-117 -659h-381l-186 1030q-10 59 -26.5 84t-51.5 31z" />
<glyph unicode="X" horiz-adv-x="1019" d="M23 0v221q39 20 63 68l231 444l-192 338q-16 31 -27.5 46.5t-36.5 27.5v221h385v-141q0 -51 6.5 -73t36.5 -81l60 -108l55 108q29 55 37 84t8 70v141h332v-221q-25 -6 -35 -18.5t-33 -55.5l-204 -393l198 -361q41 -70 88 -96v-221h-411v168q0 55 -6.5 83t-28.5 66 l-76 136l-72 -142q-23 -43 -31 -74.5t-8 -78.5v-158h-339z" />
<glyph unicode="Y" horiz-adv-x="1013" d="M10 1145v221h406v-158q0 -104 28 -164l86 -178l86 176q18 37 24.5 72t6.5 105v147h357v-221q-25 -6 -41.5 -23.5t-40.5 -70.5l-263 -514v-179q0 -74 13.5 -99.5t58.5 -37.5v-221h-455v221q45 12 58.5 38t13.5 99v166l-254 525q-25 49 -42 70.5t-42 25.5z" />
<glyph unicode="Z" horiz-adv-x="1077" d="M68 0v201l528 905h-123q-88 0 -114.5 -28.5t-26.5 -125.5v-47h-256v461h919v-205l-522 -889h94q98 0 128 30t30 126v21h279v-449h-936z" />
<glyph unicode="[" horiz-adv-x="614" d="M68 -379v1798h505v-186h-249v-1426h249v-186h-505z" />
<glyph unicode="\" horiz-adv-x="833" d="M61 1366h224l561 -1720h-225z" />
<glyph unicode="]" horiz-adv-x="614" d="M41 -193h248v1426h-248v186h504v-1798h-504v186z" />
<glyph unicode="^" horiz-adv-x="1024" d="M10 684l328 690h350l328 -690h-279l-223 477l-225 -477h-279z" />
<glyph unicode="_" horiz-adv-x="1024" d="M0 -94h1024v-240h-1024v240z" />
<glyph unicode="`" horiz-adv-x="1024" d="M285 1374h215l78 -244h-132z" />
<glyph unicode="a" horiz-adv-x="989" d="M49 262q0 109 53.5 173.5t190.5 121.5l211 76l84 29l2 43q0 129 -101 129q-102 0 -102 -127v-25h-287v242q217 106 408 106q168 0 267 -71.5t99 -194.5v-410q0 -94 9.5 -116.5t46.5 -30.5l8 -2v-205h-334v94q-146 -112 -292 -112h-3q-119 0 -189.5 76.5t-70.5 203.5z M354 281q0 -29 22.5 -53.5t53.5 -24.5q68 0 158 92v166l-92 -45q-80 -37 -111 -68t-31 -67z" />
<glyph unicode="b" horiz-adv-x="1019" d="M49 1161v205h348v-410q74 41 129.5 57.5t116.5 16.5q98 0 173 -40t101.5 -94t32.5 -97t6 -146v-293q0 -119 -13 -166t-63.5 -97t-145.5 -82.5t-202 -32.5q-106 0 -197 26.5t-222 95.5v908q0 86 -10.5 111.5t-47.5 35.5zM397 242q66 -41 138 -41q104 0 118.5 48t15.5 85 t1 88v203q0 59 -4 82.5t-29 63.5t-100 40q-68 0 -140 -47v-522z" />
<glyph unicode="c" horiz-adv-x="921" d="M63 319v394q0 145 109 231t299 86h3q184 0 386 -110v-283h-268v25q0 33 -2 48t-10.5 39.5t-39 47t-65.5 22.5q-125 0 -125 -133v-350q0 -143 123 -143q39 0 70.5 23.5t39 48t7.5 54t2 64.5v31h268v-322q-153 -110 -383 -110h-4q-227 0 -304 77.5t-91.5 121.5t-14.5 138z " />
<glyph unicode="d" horiz-adv-x="1021" d="M63 289v436q0 145 78 225t224 80q111 0 260 -74v56q0 90 -9.5 112.5t-50.5 34.5l-4 207h348v-1012q0 -90 8.5 -110.5t51.5 -36.5l4 -207h-348v66q-131 -84 -258 -84q-139 0 -205 63.5t-82.5 110.5t-16.5 133zM350 334q0 -133 125 -133q76 0 150 55v508q-76 47 -142 47 q-61 0 -97 -40t-36 -109v-328z" />
<glyph unicode="e" horiz-adv-x="940" d="M63 309v410q0 143 109 227t299 84q221 0 314.5 -90t93.5 -229v-267h-529v-133q0 -118 119 -118h2q121 0 121 145h287v-246q-197 -110 -396 -110h-4q-240 0 -313.5 75.5t-88 120.5t-14.5 131zM350 623h242v51q0 145 -119 145q-123 0 -123 -151v-45z" />
<glyph unicode="f" horiz-adv-x="544" d="M53 0v205l6 2q41 12 49.5 32.5t8.5 114.5v441h-64v215h64v57q0 164 67.5 241.5t212.5 77.5q52 0 138 -14v-207l-31 2q-100 0 -101 -116v-41h115v-215h-115v-441q0 -92 7.5 -111.5t48.5 -35.5l6 -2v-205h-412z" />
<glyph unicode="g" horiz-adv-x="1021" d="M63 303v430q0 135 82 209t234 74q68 0 115 -16.5t129 -67.5v69h350v-206q-43 -14 -53.5 -36t-10.5 -114v-682q0 -106 -16 -155.5t-99 -122t-294 -72.5q-102 0 -186 22.5t-203 81.5v234h276q0 -127 119 -127q117 0 117 139v100q-139 -69 -258 -69h-3q-143 0 -221 80 t-78 229zM350 348q0 -143 135 -143q31 0 59 10t79 41v489q-84 51 -144 52q-129 0 -129 -129v-320z" />
<glyph unicode="h" horiz-adv-x="1069" d="M53 0v205l6 2q39 10 48.5 34.5t9.5 112.5v658q0 86 -10.5 111.5t-47.5 35.5l-6 2v205h350v-412q80 43 133.5 59.5t116.5 16.5q137 0 217 -75.5t80 -206.5v-394q0 -90 10.5 -113.5t49.5 -33.5l6 -2v-205h-330q-22 57 -22 165v9v105v368q0 172 -129 172q-55 0 -132 -55 v-410q0 -96 6.5 -112.5t49.5 -34.5l6 -2v-205h-412z" />
<glyph unicode="i" horiz-adv-x="516" d="M53 0v205l6 2q39 10 48.5 34.5t9.5 112.5v301q0 86 -10.5 112t-47.5 36l-6 2v205h348v-656q0 -90 6.5 -110.5t41.5 -32.5l12 -4l4 -207h-412zM104 1247q0 61 44.5 105.5t107.5 44.5q61 0 105.5 -44t44.5 -106q0 -61 -43.5 -106t-106.5 -45t-107.5 44t-44.5 107z" />
<glyph unicode="j" horiz-adv-x="489" d="M6 -152l25 -2q47 0 65.5 30t18.5 110v669v23q0 72 -9 86q-10 31 -36 35l-15 4v207h348v-1061q0 -102 -10 -145.5t-63.5 -110t-206.5 -66.5q-39 0 -117 13v208zM100 1245q0 63 44.5 107.5t107.5 44.5t107 -44t44 -108q0 -63 -44 -107t-107 -44t-107.5 44t-44.5 107z" />
<glyph unicode="k" horiz-adv-x="980" d="M53 0v205l6 2q37 10 47.5 35.5t10.5 111.5v658q0 84 -10.5 110.5t-47.5 36.5l-6 2v205h350v-696l109 121q33 39 43 66.5t10 82.5v70h363v-203q-45 -10 -64.5 -25.5t-72.5 -74.5l-109 -123l141 -260q49 -94 129 -123v-201h-252q-27 27 -47 56.5t-59 95.5l-191 327v-125 q0 -90 5.5 -104t23.5 -29l17 -10l14 -4v-207h-410z" />
<glyph unicode="l" horiz-adv-x="514" d="M53 0v205l6 2q39 10 48.5 34.5t9.5 112.5v658q0 86 -10.5 111.5t-47.5 35.5l-6 2v205h348v-1012q0 -92 8.5 -112.5t51.5 -34.5l4 -207h-412z" />
<glyph unicode="m" horiz-adv-x="1542" d="M53 0v205l6 2q37 10 47.5 35.5t10.5 111.5v301q0 86 -10.5 112t-47.5 36l-6 2v205h342v-72q84 57 126 73.5t112 16.5q127 0 233 -98q133 98 275 98q135 0 212 -72.5t77 -201.5v-400q0 -96 6 -113.5t51 -33.5l4 -207h-330q-10 37 -14 86t-4 150v405q0 90 -26.5 129 t-88.5 39q-47 0 -106 -45v-410q0 -92 8 -114.5t49 -32.5l6 -2v-205h-330q-12 43 -16 84t-4 137v410q0 59 -4 82.5t-28.5 59.5t-88.5 36q-53 0 -113 -45v-410q0 -90 9.5 -113.5t48.5 -33.5l6 -2v-205h-412z" />
<glyph unicode="n" horiz-adv-x="1067" d="M53 0v205l6 2q37 10 47.5 35.5t10.5 111.5v301q0 86 -10.5 112t-47.5 36l-6 2v205h350v-62q74 47 127.5 63.5t124.5 16.5q139 0 217 -75.5t78 -209.5v-389q0 -86 10.5 -111.5t49.5 -35.5l6 -2v-205h-328q-24 77 -24 165v7v86v397q0 72 -33 113t-94 41q-31 0 -58.5 -10.5 t-75.5 -36.5v-408q0 -88 10.5 -113.5t47.5 -33.5l8 -2v-205h-416z" />
<glyph unicode="o" horiz-adv-x="937" d="M63 293v432q0 141 108 222t292 81q254 0 334 -97.5t80 -228.5v-397q0 -90 -20.5 -139t-73 -92t-137.5 -67.5t-181 -24.5q-401 0 -402 311zM350 330q0 -137 123 -137q117 0 117 137v360q0 127 -123 127q-51 0 -84 -35t-33 -92v-360z" />
<glyph unicode="p" horiz-adv-x="1021" d="M51 -150q43 14 52.5 38t9.5 112v655q0 88 -8.5 110.5t-49.5 37.5l-4 207h348v-68q78 49 130.5 67.5t119.5 18.5q160 0 221.5 -68.5t76 -114.5t14.5 -122v-438q0 -147 -80 -225t-230 -78q-61 0 -104 12t-148 59v-53q0 -92 6.5 -106.5t22.5 -26.5l18 -10q4 0 7.5 -1t5.5 -3 l2 -207h-410v204zM399 246q74 -45 140 -45q135 0 135 157v332q0 53 -35 86t-92 33q-35 0 -70 -13t-78 -42v-508z" />
<glyph unicode="q" horiz-adv-x="1013" d="M63 289v467q0 121 84 196.5t218 75.5q131 0 258 -86v68h286v-1010q0 -96 6.5 -112.5t51.5 -34.5l2 -207h-412v204l8 3q14 2 27.5 11t21 21.5t9.5 25.5t2 89v55q-137 -73 -253 -73h-3q-145 0 -225.5 79.5t-80.5 227.5zM350 383q0 -102 36 -143t97 -41q62 0 140 49v508 q-80 53 -144 53q-72 0 -100.5 -35t-28.5 -123v-268z" />
<glyph unicode="r" horiz-adv-x="636" d="M53 0v205l8 2q35 8 46.5 36.5t11.5 110.5v301v23q0 68 -6 86l-21 24l-18 11l-13 4v207h334v-82q63 90 146 90l59 -8v-301q-33 8 -57 8q-137 0 -137 -174v-189q0 -90 8 -110.5t49 -36.5l4 -207h-414z" />
<glyph unicode="s" horiz-adv-x="901" d="M55 721q0 143 105.5 226t288.5 83q175 0 374 -90v-256h-262q0 76 -23.5 105.5t-82.5 29.5q-41 0 -68 -24.5t-27 -67.5q0 -49 39 -73.5t53.5 -30t155 -48.5t189.5 -102t49 -180q0 -311 -373 -311q-193 0 -414 75v273h279v-21q0 -116 102 -116h2q41 0 70 26.5t29 69.5 q0 47 -34 72.5t-179.5 68.5t-209 103.5t-63.5 187.5z" />
<glyph unicode="t" horiz-adv-x="550" d="M43 793v217h51v186l287 86v-272h121v-217h-121v-422q0 -90 22.5 -127t77.5 -37h21v-205q-80 -18 -135 -18q-182 0 -223.5 90t-45.5 124.5t-4 147.5v447h-51z" />
<glyph unicode="u" horiz-adv-x="1052" d="M37 805v205h330q14 -49 18 -84t4 -125v-447q0 -72 33 -112.5t96 -40.5q57 0 133 49v405q0 86 -10 113t-47 35l-6 2v205h348v-656q0 -88 10 -113.5t49 -33.5l9 -2v-205h-353v61q-80 -45 -136 -61t-124 -16q-156 0 -222.5 85t-66.5 205v381q0 86 -10 114t-47 34z" />
<glyph unicode="v" horiz-adv-x="935" d="M14 805v205h404v-207q-45 -6 -45 -51l8 -50l100 -370l99 381l8 47q0 35 -39 43v207h375v-207q-31 -8 -42.5 -23.5t-25.5 -66.5l-205 -713h-360l-219 739q-10 33 -20.5 45.5t-37.5 20.5z" />
<glyph unicode="w" horiz-adv-x="1357" d="M14 805v205h406v-205q-43 -14 -43 -53l4 -41l65 -297l160 596h180l146 -596l74 321l2 19q0 31 -37 51v205h375v-205q-47 -18 -64 -70l-207 -735h-270l-90 334l-35 149l-8 -37l-13 -51l-16 -61l-92 -334h-268l-209 735q-16 51 -60 70z" />
<glyph unicode="x" horiz-adv-x="888" d="M18 0v201q14 6 24.5 15t39.5 44l209 244l-195 244q-23 29 -32 38t-27 19v205h350v-117q0 -45 8 -67.5t37 -57.5l45 -57l37 47q37 49 45 69.5t8 65.5v117h283v-205q-39 -14 -76 -57l-178 -213l201 -275q33 -49 73 -59v-201h-356v121q0 61 -16.5 90t-65.5 88l-18 25 l-19 -23q-53 -68 -67.5 -98.5t-14.5 -81.5v-121h-295z" />
<glyph unicode="y" horiz-adv-x="931" d="M14 807v203h400v-203q-41 -10 -41 -45q0 -23 8 -53l102 -385l99 397l4 35q0 37 -39 51v203h373v-203q-29 -12 -42.5 -32.5t-25.5 -65.5l-199 -709q-53 -193 -135 -273.5t-225 -80.5q-29 0 -47.5 2t-50.5 10v219q57 0 86 18.5t49 69.5l-252 756q-14 43 -24.5 57.5 t-39.5 28.5z" />
<glyph unicode="z" horiz-adv-x="927" d="M47 0v197l473 616h-104q-70 0 -97.5 -23.5t-27.5 -82.5v-23h-244v326h834v-176l-486 -637h92q80 0 115 30.5t35 104.5v16h244v-348h-834z" />
<glyph unicode="{" horiz-adv-x="671" d="M14 428v225q113 23 113 156v317q0 162 70.5 228.5t242.5 66.5l88 -2l68 -2v-235l-43 2q-106 0 -133 -23t-27 -121v-252q0 -102 -24.5 -154t-98.5 -104q70 -45 96.5 -100t26.5 -158v-266q0 -96 26.5 -118.5t145.5 -22.5h31v-234l-133 -4h-23q-170 0 -241.5 67.5 t-71.5 227.5v330q0 84 -25.5 124t-87.5 52z" />
<glyph unicode="|" horiz-adv-x="1024" d="M379 -342v1708h266v-1708h-266z" />
<glyph unicode="}" horiz-adv-x="671" d="M76 -135h30q121 0 148 20.5t27 120.5v266q0 102 25.5 156.5t96.5 101.5q-74 53 -98 103.5t-24 154.5v252q0 96 -26 120t-136 24l-43 -2v235l135 4h22q170 0 242 -67.5t72 -227.5v-317q0 -133 110 -156v-225q-59 -12 -84.5 -52t-25.5 -124v-330q0 -162 -70.5 -228.5 t-243.5 -66.5l-88 2l-69 2v234z" />
<glyph unicode="~" horiz-adv-x="1366" d="M184 1243l17 35q61 139 125.5 194.5t169.5 55.5q68 0 161 -35t143 -51.5t87 -16.5q47 0 77.5 22.5t65.5 84.5l152 -88q-47 -98 -80 -144.5t-96.5 -88.5t-149.5 -42q-45 0 -78 10.5t-122 43t-120.5 41t-54.5 8.5q-51 0 -80.5 -24.5t-70.5 -100.5z" />
<glyph unicode="&#xa1;" horiz-adv-x="602" d="M123 -211l12 117l90 694h154l88 -700q6 -35 9 -61.5t3 -43.5q0 -74 -49 -119t-129 -45t-129 43t-49 115zM147 870q0 68 45 113t113 45t113 -45t45 -113t-45 -112.5t-113 -44.5t-113 45t-45 112z" />
<glyph unicode="&#xa2;" d="M133 498v395q0 250 285 303v170h266v-170q150 -39 246 -100v-279h-271v25q0 160 -118 159q-123 0 -123 -135v-352q0 -145 125 -145q55 0 85.5 36.5t30.5 106.5v51v31h271v-320q-88 -70 -246 -104v-170h-266v170q-139 27 -197.5 85t-73 103t-14.5 140z" />
<glyph unicode="&#xa3;" d="M53 0v219l15 2q8 4 15 6t13 9q20 12 24.5 29.5t4.5 103.5v211h-72v233h72v90q0 125 4 164t39 119t149.5 145.5t270.5 65.5q211 0 424 -129v-336h-279q0 98 -34.5 141t-114.5 43q-145 0 -146 -160v-143h377v-233h-377v-322h156q70 0 97.5 29.5t27.5 103.5h293v-391h-959z " />
<glyph unicode="&#xa4;" horiz-adv-x="1169" d="M61 344l162 162q-57 90 -57 213q0 119 57 211l-162 162l150 147l162 -162q96 59 211 60q113 0 213 -60l161 162l148 -147l-162 -162q57 -96 57 -213t-57 -211l162 -162l-148 -149l-161 161q-106 -57 -213 -57q-109 0 -211 57l-162 -161zM410 721q0 -72 51 -123t123 -51 q70 0 121 51t51 123t-50 122t-122 50t-123 -49t-51 -123z" />
<glyph unicode="&#xa5;" d="M49 1145v221h391v-211q0 -57 4.5 -74.5t30.5 -79.5l78 -161l80 161q39 78 39 158v207h340v-221q-25 -10 -41.5 -29.5t-40.5 -64.5l-154 -299h123v-138h-192l-41 -77v-52h233v-137h-233v-26q0 -45 11 -62.5t54 -34.5l6 -4v-221h-428v221l29 12q45 14 45 89v26h-231v137 h231v39l-43 90h-188v138h122l-141 301q-41 84 -84 92z" />
<glyph unicode="&#xa6;" horiz-adv-x="1024" d="M379 313h266v-655h-266v655zM379 655v711h266v-711h-266z" />
<glyph unicode="&#xa7;" d="M37 563q0 188 194 291q-109 102 -108 217q0 133 114.5 227.5t280.5 94.5q201 0 363 -78v-297h-232q0 145 -110 145q-49 0 -81 -25.5t-32 -66.5q0 -39 30.5 -63.5t130 -62.5t215.5 -100.5t169 -115.5t53 -170q0 -170 -182 -272q72 -57 102.5 -113.5t30.5 -130.5 q0 -160 -115 -254t-311 -94q-213 0 -402 88v326h254v-33q0 -78 31 -113t105 -35q51 0 83.5 29t32.5 72q0 68 -84 104q-27 14 -57.5 25.5t-111.5 43t-139 58.5t-104 55.5t-83 97t-37 150.5zM262 627q0 -49 64 -80l358 -164q90 59 90 129q0 57 -90 96l-324 142 q-98 -55 -98 -123z" />
<glyph unicode="&#xa8;" horiz-adv-x="1024" d="M221 1247q0 47 35 82t82 35t82 -35t35 -82t-35 -82t-82 -35t-82 35t-35 82zM569 1251q0 47 35 82t84 35q47 0 82 -35t35 -82q0 -49 -35 -83.5t-82 -34.5q-49 0 -84 34.5t-35 83.5z" />
<glyph unicode="&#xa9;" horiz-adv-x="1556" d="M68 684q0 297 207.5 505t506.5 208q291 0 498 -209t207 -504q0 -293 -207 -504t-498 -211q-299 0 -506.5 208t-207.5 507zM209 682q0 -244 167 -415t404 -171q231 0 397 172t166 414q0 240 -166 413t-397 173q-240 0 -405.5 -170t-165.5 -416zM473 496v391q0 221 293 221 q150 0 289 -61v-238h-201v29q0 92 -86 92q-84 0 -84 -105v-290q0 -100 88 -101q45 0 63.5 22.5t18.5 78.5v71h201v-284q-154 -66 -287 -66q-190 0 -236.5 63.5t-52.5 89t-6 87.5z" />
<glyph unicode="&#xaa;" horiz-adv-x="718" d="M61 571v131h588v-131h-588zM68 932q0 106 102 158q39 16 137.5 50t100.5 34l2 20q0 70 -58 70q-33 0 -45 -14.5t-12 -55.5v-14l-195 -6v153q147 66 265 66q106 0 171.5 -45t65.5 -119v-242q0 -49 4 -62.5t27 -17.5l10 -2v-133h-225v49q-88 -61 -178 -61q-78 0 -125 47 t-47 125zM274 942q0 -12 10.5 -26.5t32.5 -12.5q38 0 91 53v82l-50 -20q-84 -41 -84 -76z" />
<glyph unicode="&#xab;" horiz-adv-x="688" d="M82 543l106 270h164l-108 -270l108 -271h-164zM336 543l108 270h162l-106 -270l106 -271h-162z" />
<glyph unicode="&#xac;" horiz-adv-x="1024" d="M68 307v240h886v-547h-266v307h-620z" />
<glyph unicode="&#xad;" horiz-adv-x="438" d="M0 449v215h438v-215h-438z" />
<glyph unicode="&#xae;" horiz-adv-x="1556" d="M68 684q0 297 207.5 505t506.5 208q291 0 498 -209t207 -504q0 -293 -207 -504t-498 -211q-299 0 -506.5 208t-207.5 507zM209 682q0 -244 167 -415t404 -171q231 0 397 172t166 414q0 240 -166 413t-397 173q-240 0 -405.5 -170t-165.5 -416zM451 272v144q33 8 40 19 t7 54v385q0 43 -7.5 55.5t-37.5 18.5v144h356q143 0 210.5 -57.5t67.5 -180.5q0 -145 -104 -184l-8 -2l12 -4q82 -25 82 -121l-2 -54v-8q0 -33 6 -44t31 -23v-142h-227q-18 47 -19 117v86v33q0 47 -18.5 65.5t-67.5 18.5h-63v-103q0 -43 7 -55t36 -18v-144h-301zM709 750h67 q55 0 76.5 19t21.5 71q0 51 -23.5 68.5t-88.5 17.5h-53v-176z" />
<glyph unicode="&#xaf;" horiz-adv-x="1021" d="M238 1171v142h546v-142h-546z" />
<glyph unicode="&#xb0;" horiz-adv-x="1064" d="M231 1059q0 123 88 209t213 86t213.5 -86t88.5 -209t-88.5 -211t-213.5 -88q-127 0 -214 87t-87 212zM375 1059q0 -68 45 -113t112 -45q66 0 112 46t46 112t-45 110.5t-113 44.5q-63 0 -110 -45t-47 -110z" />
<glyph unicode="&#xb1;" horiz-adv-x="1064" d="M96 -55v245h875v-245h-875zM96 588v246h301v313h273v-313h301v-246h-301v-316h-273v316h-301z" />
<glyph unicode="&#xb2;" horiz-adv-x="704" d="M53 545v192q0 86 29 118t56.5 53.5t54.5 41.5l40 29l41 31l41 30q82 59 97.5 74.5t15.5 38.5q0 66 -78 66q-80 0 -80 -84v-64h-204v227q76 43 140 59.5t161 16.5q143 0 210.5 -55t67.5 -172q0 -100 -59 -158l-90 -69l-93 -68q-98 -70 -115.5 -89.5t-17.5 -51.5h92 q45 0 55.5 12t10.5 70v20h223v-268h-598z" />
<glyph unicode="&#xb3;" horiz-adv-x="704" d="M51 602v207h213v-23q0 -80 86 -79q37 0 59.5 24.5t22.5 65.5q0 88 -106 88h-123v151h123q106 0 106 86q0 37 -24.5 59.5t-65.5 22.5q-33 0 -55.5 -20.5t-22.5 -55.5v-16h-205v195q145 76 291 75q145 0 221 -57t76 -168q0 -135 -135 -184q141 -43 141 -207 q0 -236 -313 -236q-68 0 -134.5 16.5t-154.5 55.5z" />
<glyph unicode="&#xb4;" horiz-adv-x="1024" d="M449 1130l77 244h215l-161 -244h-131z" />
<glyph unicode="&#xb5;" horiz-adv-x="1024" d="M55 -354v1337h264v-520q0 -92 14.5 -139.5t53.5 -83.5q59 -49 133 -50q190 0 191 281v512h264v-983h-264v115q-70 -135 -193 -135q-66 0 -112 28.5t-87 95.5v-458h-264z" />
<glyph unicode="&#xb6;" horiz-adv-x="1064" d="M31 1016q0 205 67.5 277.5t257.5 72.5h678v-221q-35 -20 -43 -45t-8 -105v-923q0 -86 7 -107.5t44 -42.5v-221l-274 -2v1456h-170v-1456l-293 2v221q39 10 53.5 35t14.5 86v98v471l-54 2q-90 0 -131 14.5t-81 60.5t-54 113.5t-14 213.5z" />
<glyph unicode="&#xb7;" horiz-adv-x="516" d="M113 530q0 61 43 104.5t104 43.5t104.5 -43t43.5 -105q0 -61 -43 -104t-105 -43q-61 0 -104 43t-43 104z" />
<glyph unicode="&#xb8;" horiz-adv-x="1021" d="M397 -190l60 190h80l-33 -84q82 0 102.5 -20.5t20.5 -96.5v-26q0 -98 -23.5 -126t-107.5 -28q-55 0 -77 19.5t-22 70.5v31h72q0 -43 29 -43q20 0 24 14.5t4 91.5q0 47 -30 47q-27 0 -27 -40h-72z" />
<glyph unicode="&#xb9;" horiz-adv-x="704" d="M203 547v143q29 8 36 21.5t7 52.5v385q0 43 -6.5 53t-36.5 21v143h254v-602q0 -43 6 -53.5t41 -20.5v-143h-301z" />
<glyph unicode="&#xba;" horiz-adv-x="718" d="M61 571v131h588v-131h-588zM92 952v254q0 88 69.5 137.5t196.5 49.5q260 0 260 -199v-236q0 -197 -266 -196q-260 0 -260 190zM287 975q0 -76 71 -76q66 0 66 76v211q0 70 -70 69q-67 1 -67 -69v-211z" />
<glyph unicode="&#xbb;" horiz-adv-x="688" d="M82 272l108 271l-108 270h164l106 -270l-106 -271h-164zM336 272l106 271l-106 270h164l106 -270l-106 -271h-164z" />
<glyph unicode="&#xbc;" horiz-adv-x="1724" d="M203 547v143q29 8 36 21.5t7 52.5v385q0 43 -6.5 53t-36.5 21v143h254v-602q0 -43 6 -53.5t41 -20.5v-143h-301zM569 0l424 1366h162l-422 -1366h-164zM1055 213v182l303 424h258v-440h55v-166h-55q0 -37 8 -51.5t35 -18.5v-143h-301v143q27 4 37 18.5t10 51.5h-350z M1255 379h150v104v54l2 49l-2 28h-16q-16 -47 -37 -79.5t-39 -63.5z" />
<glyph unicode="&#xbd;" horiz-adv-x="1724" d="M203 547v143q29 8 36 21.5t7 52.5v385q0 43 -6.5 53t-36.5 21v143h254v-602q0 -43 6 -53.5t41 -20.5v-143h-301zM569 0l424 1366h162l-422 -1366h-164zM1073 0v193q0 82 26.5 113.5t46 48t66.5 48.5l123 93q80 57 96.5 73.5t16.5 38.5q0 66 -78 66q-80 0 -80 -84v-64 h-205v228q76 43 140.5 59t160.5 16q143 0 211 -55t68 -172q0 -72 -22.5 -110.5t-96.5 -94.5l-61 -47l-62 -45l-30 -20l-29 -23l-29 -20q-45 -35 -45 -76h92q45 0 55.5 12t10.5 68v20h223v-266h-598z" />
<glyph unicode="&#xbe;" horiz-adv-x="1724" d="M51 602v207h213v-23q0 -80 86 -79q37 0 59.5 24.5t22.5 65.5q0 88 -106 88h-123v151h123q106 0 106 86q0 37 -24.5 59.5t-65.5 22.5q-33 0 -55.5 -20.5t-22.5 -55.5v-16h-205v195q145 76 291 75q145 0 221 -57t76 -168q0 -135 -135 -184q141 -43 141 -207 q0 -236 -313 -236q-68 0 -134.5 16.5t-154.5 55.5zM569 0l424 1366h162l-422 -1366h-164zM1055 213v182l303 424h256v-440h57v-166h-57v-12q0 -51 45 -58v-143h-301v143q45 8 45 70h-348zM1255 379h148v104v54l2 49l-2 28h-14q-16 -41 -37 -76.5t-39 -66.5z" />
<glyph unicode="&#xbf;" horiz-adv-x="1017" d="M68 6q0 96 22.5 163t59 101.5t72.5 60t129 87t112.5 89.5t19.5 91h293v-20q0 -131 -6 -166t-32.5 -70t-48 -51.5t-146.5 -104.5t-149.5 -116.5t-24.5 -71.5q0 -57 36.5 -92t98.5 -35q121 0 137 92q8 33 8 117h299v-320q-186 -131 -436 -131q-215 0 -329.5 96.5 t-114.5 280.5zM465 879q0 68 45 112.5t113 44.5t112.5 -45t44.5 -112q0 -66 -46 -112t-111 -46q-66 0 -112 46t-46 112z" />
<glyph unicode="&#xc0;" horiz-adv-x="1056" d="M10 0v221q33 14 49.5 42t28.5 91l197 1012h473l209 -1022q12 -61 27.5 -84.5t52.5 -38.5v-221h-467v221q70 6 69 62l-6 45l-10 59h-264l-13 -59l-4 -37q0 -35 17.5 -52.5t56.5 -17.5v-221h-416zM313 1708h215l78 -244h-131zM406 586h184l-98 446z" />
<glyph unicode="&#xc1;" horiz-adv-x="1056" d="M10 0v221q33 14 49.5 42t28.5 91l197 1012h473l209 -1022q12 -61 27.5 -84.5t52.5 -38.5v-221h-467v221q70 6 69 62l-6 45l-10 59h-264l-13 -59l-4 -37q0 -35 17.5 -52.5t56.5 -17.5v-221h-416zM406 586h184l-98 446zM451 1464l77 244h215l-161 -244h-131z" />
<glyph unicode="&#xc2;" horiz-adv-x="1056" d="M10 0v221q33 14 49.5 42t28.5 91l197 1012h473l209 -1022q12 -61 27.5 -84.5t52.5 -38.5v-221h-467v221q70 6 69 62l-6 45l-10 59h-264l-13 -59l-4 -37q0 -35 17.5 -52.5t56.5 -17.5v-221h-416zM268 1464l160 242h205l155 -242h-163l-99 156l-98 -156h-160zM406 586h184 l-98 446z" />
<glyph unicode="&#xc3;" horiz-adv-x="1056" d="M10 0v221q33 14 49.5 42t28.5 91l197 1012h473l209 -1022q12 -61 27.5 -84.5t52.5 -38.5v-221h-467v221q70 6 69 62l-6 45l-10 59h-264l-13 -59l-4 -37q0 -35 17.5 -52.5t56.5 -17.5v-221h-416zM248 1468q0 88 43 137.5t112 49.5q39 0 93.5 -18.5t82 -25.5t42.5 -7 q43 0 61 45h127q-23 -184 -156 -185q-23 0 -66.5 12.5t-85.5 23.5t-65 11q-47 0 -59 -43h-129zM406 586h184l-98 446z" />
<glyph unicode="&#xc4;" horiz-adv-x="1056" d="M10 0v221q33 14 49.5 42t28.5 91l197 1012h473l209 -1022q12 -61 27.5 -84.5t52.5 -38.5v-221h-467v221q70 6 69 62l-6 45l-10 59h-264l-13 -59l-4 -37q0 -35 17.5 -52.5t56.5 -17.5v-221h-416zM238 1585q0 47 34.5 82t81.5 35t82 -35t35 -82t-35 -82t-82 -35t-81.5 35 t-34.5 82zM406 586h184l-98 446zM586 1585q0 47 35 82t84 35q47 0 81.5 -35t34.5 -82q0 -49 -34.5 -84t-81.5 -35q-49 0 -84 35t-35 84z" />
<glyph unicode="&#xc5;" horiz-adv-x="1056" d="M10 0v221q33 14 49.5 42t28.5 91l197 1012h473l209 -1022q12 -61 27.5 -84.5t52.5 -38.5v-221h-467v221q70 6 69 62l-6 45l-10 59h-264l-13 -59l-4 -37q0 -35 17.5 -52.5t56.5 -17.5v-221h-416zM338 1640q0 78 54 134.5t136 56.5q78 0 133.5 -55.5t55.5 -135.5 q0 -78 -54.5 -134t-134.5 -56t-135 55.5t-55 134.5zM406 586h184l-98 446zM459 1640q0 -31 20.5 -51t48.5 -20q29 0 49.5 20.5t20.5 50.5q0 29 -20.5 49.5t-49.5 20.5t-49 -20.5t-20 -49.5z" />
<glyph unicode="&#xc6;" horiz-adv-x="1644" d="M0 0v225q35 10 51.5 27.5t38.5 71.5l418 1042h1069v-422h-299v23q0 80 -32 105.5t-134 25.5h-102v-283h362v-231h-362v-324h104q106 0 135 28.5t29 137.5v29h299v-455h-952v225q43 10 57 36t14 97v17h-295l-24 -51q-14 -29 -15 -50q0 -39 48 -49v-225h-410zM483 582h213 v524z" />
<glyph unicode="&#xc7;" horiz-adv-x="1052" d="M68 367v663q0 365 456 365q236 0 447 -101v-385h-295v37q0 172 -141 172q-150 0 -150 -192v-494q0 -102 30.5 -143t110.5 -41q84 0 117 41t33 145v109h295v-463q-102 -53 -205.5 -82t-204.5 -29l-24 -59q88 0 109.5 -21.5t21.5 -103.5v-27q0 -104 -25 -132.5t-113 -28.5 q-61 0 -82.5 19t-21.5 75v33h74q0 -27 6 -37.5t24 -10.5q23 0 27 14.5t4 98.5q0 51 -33 51q-29 0 -28 -43h-74l51 172q-94 0 -185 33t-141.5 86t-66.5 108.5t-16 170.5z" />
<glyph unicode="&#xc8;" horiz-adv-x="1110" d="M78 0v221q45 12 58.5 38t13.5 99v650q0 76 -12.5 101.5t-59.5 35.5v221h964v-422h-294v17v10q0 74 -29 100.5t-111 26.5h-145v-277h379v-231h-379v-330h133q100 0 126 29.5t26 148.5v15h294v-453h-964zM287 1708h215l78 -244h-131z" />
<glyph unicode="&#xc9;" horiz-adv-x="1110" d="M78 0v221q45 12 58.5 38t13.5 99v650q0 76 -12.5 101.5t-59.5 35.5v221h964v-422h-294v17v10q0 74 -29 100.5t-111 26.5h-145v-277h379v-231h-379v-330h133q100 0 126 29.5t26 148.5v15h294v-453h-964zM395 1464l78 244h215l-162 -244h-131z" />
<glyph unicode="&#xca;" horiz-adv-x="1110" d="M78 0v221q45 12 58.5 38t13.5 99v650q0 76 -12.5 101.5t-59.5 35.5v221h964v-422h-294v17v10q0 74 -29 100.5t-111 26.5h-145v-277h379v-231h-379v-330h133q100 0 126 29.5t26 148.5v15h294v-453h-964zM295 1464l160 242h204l156 -242h-164l-98 156l-98 -156h-160z" />
<glyph unicode="&#xcb;" horiz-adv-x="1110" d="M78 0v221q45 12 58.5 38t13.5 99v650q0 76 -12.5 101.5t-59.5 35.5v221h964v-422h-294v17v10q0 74 -29 100.5t-111 26.5h-145v-277h379v-231h-379v-330h133q100 0 126 29.5t26 148.5v15h294v-453h-964zM264 1585q0 47 35 82t82 35t82 -35t35 -82t-35 -82t-82 -35t-82 35 t-35 82zM612 1585q0 47 35 82t84 35q47 0 82 -35t35 -82q0 -49 -35 -84t-82 -35q-49 0 -84 35t-35 84z" />
<glyph unicode="&#xcc;" horiz-adv-x="616" d="M78 0v221q45 12 58.5 37.5t13.5 99.5v650q0 76 -12.5 101.5t-59.5 35.5v221h457v-221q-43 -10 -57.5 -37t-14.5 -100v-650q0 -74 13 -99.5t59 -37.5v-221h-457zM92 1708h215l78 -244h-131z" />
<glyph unicode="&#xcd;" horiz-adv-x="616" d="M78 0v221q45 12 58.5 37.5t13.5 99.5v650q0 76 -12.5 101.5t-59.5 35.5v221h457v-221q-43 -10 -57.5 -37t-14.5 -100v-650q0 -74 13 -99.5t59 -37.5v-221h-457zM244 1464l78 244h215l-162 -244h-131z" />
<glyph unicode="&#xce;" horiz-adv-x="616" d="M49 1464l160 242h205l155 -242h-163l-99 156l-98 -156h-160zM80 0v221q45 12 58.5 37.5t13.5 99.5v650q0 76 -12.5 101.5t-59.5 35.5v221h457v-221q-43 -10 -57.5 -37t-14.5 -100v-650q0 -74 13.5 -99.5t58.5 -37.5v-221h-457z" />
<glyph unicode="&#xcf;" horiz-adv-x="616" d="M45 1585q0 47 35 82t82 35t82 -35t35 -82t-35 -82t-82 -35t-82 35t-35 82zM80 0v221q45 12 58.5 37.5t13.5 99.5v650q0 76 -12.5 101.5t-59.5 35.5v221h457v-221q-43 -10 -57.5 -37t-14.5 -100v-650q0 -74 13.5 -99.5t58.5 -37.5v-221h-457zM338 1585q0 47 35 82t84 35 q47 0 81.5 -35t34.5 -82q0 -49 -34.5 -84t-81.5 -35q-49 0 -84 35t-35 84z" />
<glyph unicode="&#xd0;" horiz-adv-x="1124" d="M76 0v221q47 16 59 39t12 96v234h-71v229h71v189q0 72 -10 94t-53 39l-8 4v221h526q119 0 188.5 -16.5t168 -90t98.5 -298.5v-476q0 -188 -41 -283.5t-117 -135t-119 -51t-102 -11.5l-78 -2l-90 -2h-434zM461 272h104q115 0 146.5 32t31.5 145v473q0 106 -34.5 141 t-139.5 35h-108v-279h145v-229h-145v-318z" />
<glyph unicode="&#xd1;" horiz-adv-x="1220" d="M78 0v221q45 12 58.5 38t13.5 99v650q0 76 -12.5 101.5t-59.5 35.5v221h358l350 -709v351q0 76 -12 101.5t-59 35.5v221h430v-221q-43 -10 -57.5 -37t-14.5 -100v-1008h-287l-350 719v-361q0 -74 13.5 -99.5t58.5 -37.5v-221h-430zM330 1468q0 88 43 137.5t112 49.5 q39 0 93.5 -18.5t82 -25.5t41.5 -7q44 0 62 45h127q-23 -184 -156 -185q-23 0 -66.5 12.5t-85.5 23.5t-65 11q-47 0 -59 -43h-129z" />
<glyph unicode="&#xd2;" horiz-adv-x="1056" d="M68 326v702q0 367 467 367q297 0 374.5 -116t77.5 -251v-680q0 -98 -14.5 -148t-93 -139.5t-355.5 -89.5q-147 0 -257.5 45t-154.5 116t-44 194zM313 1708h215l78 -244h-131zM381 436q0 -100 35 -144t114 -44q143 0 144 174v528q0 168 -144 168q-149 0 -149 -176v-506z " />
<glyph unicode="&#xd3;" horiz-adv-x="1056" d="M68 326v702q0 367 467 367q297 0 374.5 -116t77.5 -251v-680q0 -98 -14.5 -148t-93 -139.5t-355.5 -89.5q-147 0 -257.5 45t-154.5 116t-44 194zM381 436q0 -100 35 -144t114 -44q143 0 144 174v528q0 168 -144 168q-149 0 -149 -176v-506zM463 1464l78 244h215 l-162 -244h-131z" />
<glyph unicode="&#xd4;" horiz-adv-x="1056" d="M68 326v702q0 367 467 367q297 0 374.5 -116t77.5 -251v-680q0 -98 -14.5 -148t-93 -139.5t-355.5 -89.5q-147 0 -257.5 45t-154.5 116t-44 194zM268 1464l160 242h205l155 -242h-163l-99 156l-98 -156h-160zM381 436q0 -100 35 -144t114 -44q143 0 144 174v528 q0 168 -144 168q-149 0 -149 -176v-506z" />
<glyph unicode="&#xd5;" horiz-adv-x="1056" d="M68 326v702q0 367 467 367q297 0 374.5 -116t77.5 -251v-680q0 -98 -14.5 -148t-93 -139.5t-355.5 -89.5q-147 0 -257.5 45t-154.5 116t-44 194zM248 1468q0 88 43 137.5t112 49.5q39 0 93.5 -18.5t82 -25.5t42.5 -7q43 0 61 45h127q-23 -184 -156 -185q-23 0 -66.5 12.5 t-85.5 23.5t-65 11q-47 0 -59 -43h-129zM381 436q0 -100 35 -144t114 -44q143 0 144 174v528q0 168 -144 168q-149 0 -149 -176v-506z" />
<glyph unicode="&#xd6;" horiz-adv-x="1056" d="M68 326v702q0 367 467 367q297 0 374.5 -116t77.5 -251v-680q0 -98 -14.5 -148t-93 -139.5t-355.5 -89.5q-147 0 -257.5 45t-154.5 116t-44 194zM236 1585q0 47 34.5 82t81.5 35t82 -35t35 -82t-35 -82t-82 -35t-81.5 35t-34.5 82zM381 436q0 -100 35 -144t114 -44 q143 0 144 174v528q0 168 -144 168q-149 0 -149 -176v-506zM584 1585q0 47 34.5 82t83.5 35q47 0 82 -35t35 -82q0 -49 -34.5 -84t-82.5 -35q-49 0 -83.5 35t-34.5 84z" />
<glyph unicode="&#xd7;" horiz-adv-x="1064" d="M131 494l217 217l-217 217l184 182l217 -217l218 217l182 -182l-217 -217l217 -217l-182 -185l-218 217l-217 -217z" />
<glyph unicode="&#xd8;" horiz-adv-x="1077" d="M61 -16l72 141q-53 59 -53 182v740q0 166 119.5 257t335.5 91q106 0 200 -21l58 117l225 -111l-70 -143q51 -51 51 -180v-721q0 -100 -24.5 -161.5t-112.5 -132.5t-319 -71q-61 0 -99 4.5t-100 18.5l-57 -123zM393 408q0 -160 148 -160q145 0 145 176v518q0 174 -143 174 q-150 0 -150 -176v-532z" />
<glyph unicode="&#xd9;" horiz-adv-x="1140" d="M59 1145v221h457v-221q-43 -10 -57.5 -37t-14.5 -100v-570q0 -96 35 -139t115 -43q78 0 110.5 42t32.5 142v568q0 76 -12 101.5t-59 35.5v221h417v-221q-43 -10 -57 -36.5t-14 -100.5v-570q0 -127 -8.5 -176t-49.5 -117.5t-143 -115.5t-238 -47q-215 0 -328.5 99 t-113.5 288v77v562q0 76 -12.5 101.5t-59.5 35.5zM356 1708h215l78 -244h-131z" />
<glyph unicode="&#xda;" horiz-adv-x="1140" d="M59 1145v221h457v-221q-43 -10 -57.5 -37t-14.5 -100v-570q0 -96 35 -139t115 -43q78 0 110.5 42t32.5 142v568q0 76 -12 101.5t-59 35.5v221h417v-221q-43 -10 -57 -36.5t-14 -100.5v-570q0 -127 -8.5 -176t-49.5 -117.5t-143 -115.5t-238 -47q-215 0 -328.5 99 t-113.5 288v77v562q0 76 -12.5 101.5t-59.5 35.5zM520 1464l78 244h215l-162 -244h-131z" />
<glyph unicode="&#xdb;" horiz-adv-x="1140" d="M59 1145v221h457v-221q-43 -10 -57.5 -37t-14.5 -100v-570q0 -96 35 -139t115 -43q78 0 110.5 42t32.5 142v568q0 76 -12 101.5t-59 35.5v221h417v-221q-43 -10 -57 -36.5t-14 -100.5v-570q0 -127 -8.5 -176t-49.5 -117.5t-143 -115.5t-238 -47q-215 0 -328.5 99 t-113.5 288v77v562q0 76 -12.5 101.5t-59.5 35.5zM330 1464l159 242h205l156 -242h-164l-98 156l-99 -156h-159z" />
<glyph unicode="&#xdc;" horiz-adv-x="1140" d="M59 1145v221h457v-221q-43 -10 -57.5 -37t-14.5 -100v-570q0 -96 35 -139t115 -43q78 0 110.5 42t32.5 142v568q0 76 -12 101.5t-59 35.5v221h417v-221q-43 -10 -57 -36.5t-14 -100.5v-570q0 -127 -8.5 -176t-49.5 -117.5t-143 -115.5t-238 -47q-215 0 -328.5 99 t-113.5 288v77v562q0 76 -12.5 101.5t-59.5 35.5zM293 1585q0 47 35 82t82 35t81.5 -35t34.5 -82t-34.5 -82t-81.5 -35t-82 35t-35 82zM641 1585q0 47 35 82t84 35q47 0 82 -35t35 -82q0 -49 -35 -84t-82 -35q-49 0 -84 35t-35 84z" />
<glyph unicode="&#xdd;" horiz-adv-x="1013" d="M10 1145v221h406v-158q0 -104 28 -164l86 -178l86 176q18 37 24.5 72t6.5 105v147h357v-221q-25 -6 -41.5 -23.5t-40.5 -70.5l-263 -514v-179q0 -74 13.5 -99.5t58.5 -37.5v-221h-455v221q45 12 58.5 38t13.5 99v166l-254 525q-25 49 -42 70.5t-42 25.5zM457 1464l78 244 h213l-160 -244h-131z" />
<glyph unicode="&#xde;" horiz-adv-x="1103" d="M78 0v221q45 12 58.5 38t13.5 99v650q0 76 -12.5 101.5t-59.5 35.5v221h385v-152h180q195 0 274.5 -94t79.5 -323q0 -236 -78 -335.5t-264 -99.5h-192q0 -82 10 -102t62 -39v-221h-457zM463 616h39q111 0 146.5 36t35.5 149q0 94 -33 133t-116 39h-72v-357z" />
<glyph unicode="&#xdf;" horiz-adv-x="980" d="M51 0v205l6 2q37 10 47.5 35.5t10.5 111.5v699q0 158 104.5 243.5t300.5 85.5q205 0 298 -82.5t93 -265.5q0 -119 -43 -180t-149 -94q102 -25 149 -85.5t47 -170.5v-197q0 -84 -16 -137t-56 -97t-84 -58.5t-141 -14.5h-124v197q80 0 102 26.5t22 124.5v168q0 68 -27 97.5 t-97 37.5v178q72 0 100.5 38t28.5 134q0 92 -25 131t-88 39q-111 0 -111 -141v-1030h-348z" />
<glyph unicode="&#xe0;" horiz-adv-x="989" d="M49 262q0 109 53.5 173.5t190.5 121.5l211 76l84 29l2 43q0 129 -101 129q-102 0 -102 -127v-25h-287v242q217 106 408 106q168 0 267 -71.5t99 -194.5v-410q0 -94 9.5 -116.5t46.5 -30.5l8 -2v-205h-334v94q-147 -113 -295 -112q-119 0 -189.5 76.5t-70.5 203.5z M266 1374h215l78 -244h-131zM354 281q0 -29 22.5 -53.5t53.5 -24.5q68 0 158 92v166l-92 -45q-80 -37 -111 -68t-31 -67z" />
<glyph unicode="&#xe1;" horiz-adv-x="989" d="M49 262q0 109 53.5 173.5t190.5 121.5l211 76l84 29l2 43q0 129 -101 129q-102 0 -102 -127v-25h-287v242q217 106 408 106q168 0 267 -71.5t99 -194.5v-410q0 -94 9.5 -116.5t46.5 -30.5l8 -2v-205h-334v94q-147 -113 -295 -112q-119 0 -189.5 76.5t-70.5 203.5z M354 281q0 -29 22.5 -53.5t53.5 -24.5q68 0 158 92v166l-92 -45q-80 -37 -111 -68t-31 -67zM430 1130l78 244h215l-162 -244h-131z" />
<glyph unicode="&#xe2;" horiz-adv-x="989" d="M49 262q0 109 53.5 173.5t190.5 121.5l211 76l84 29l2 43q0 129 -101 129q-102 0 -102 -127v-25h-287v242q217 106 408 106q168 0 267 -71.5t99 -194.5v-410q0 -94 9.5 -116.5t46.5 -30.5l8 -2v-205h-334v94q-147 -113 -295 -112q-119 0 -189.5 76.5t-70.5 203.5z M233 1130l160 242h205l156 -242h-164l-98 156l-99 -156h-160zM354 281q0 -29 22.5 -53.5t53.5 -24.5q68 0 158 92v166l-92 -45q-80 -37 -111 -68t-31 -67z" />
<glyph unicode="&#xe3;" horiz-adv-x="989" d="M49 262q0 109 53.5 173.5t190.5 121.5l211 76l84 29l2 43q0 129 -101 129q-102 0 -102 -127v-25h-287v242q217 106 408 106q168 0 267 -71.5t99 -194.5v-410q0 -94 9.5 -116.5t46.5 -30.5l8 -2v-205h-334v94q-147 -113 -295 -112q-119 0 -189.5 76.5t-70.5 203.5z M215 1135q0 86 43 135t113 49q37 0 111.5 -24.5t105.5 -24.5q25 0 38 9t23 34h127q-23 -182 -155 -183q-20 0 -46 6.5t-87.5 24t-84.5 17.5q-47 0 -59 -43h-129zM354 281q0 -29 22.5 -53.5t53.5 -24.5q68 0 158 92v166l-92 -45q-80 -37 -111 -68t-31 -67z" />
<glyph unicode="&#xe4;" horiz-adv-x="989" d="M49 262q0 109 53.5 173.5t190.5 121.5l211 76l84 29l2 43q0 129 -101 129q-102 0 -102 -127v-25h-287v242q217 106 408 106q168 0 267 -71.5t99 -194.5v-410q0 -94 9.5 -116.5t46.5 -30.5l8 -2v-205h-334v94q-147 -113 -295 -112q-119 0 -189.5 76.5t-70.5 203.5z M203 1247q0 47 34.5 82t81.5 35t82 -35t35 -82t-34.5 -82t-82.5 -35q-47 0 -81.5 35t-34.5 82zM354 281q0 -29 22.5 -53.5t53.5 -24.5q68 0 158 92v166l-92 -45q-80 -37 -111 -68t-31 -67zM551 1251q0 47 35 82t84 35q47 0 81.5 -35t34.5 -82q0 -49 -34.5 -83.5t-81.5 -34.5 q-49 0 -84 34.5t-35 83.5z" />
<glyph unicode="&#xe5;" horiz-adv-x="989" d="M49 262q0 109 53.5 173.5t190.5 121.5l211 76l84 29l2 43q0 129 -101 129q-102 0 -102 -127v-25h-287v242q217 106 408 106q168 0 267 -71.5t99 -194.5v-410q0 -94 9.5 -116.5t46.5 -30.5l8 -2v-205h-334v94q-147 -113 -295 -112q-119 0 -189.5 76.5t-70.5 203.5z M305 1305q0 78 54.5 134t136.5 56q78 0 133 -55.5t55 -134.5q0 -78 -54.5 -134.5t-133.5 -56.5q-80 0 -135.5 55.5t-55.5 135.5zM354 281q0 -29 22.5 -53.5t53.5 -24.5q68 0 158 92v166l-92 -45q-80 -37 -111 -68t-31 -67zM426 1305q0 -31 20.5 -51.5t49.5 -20.5t49 20.5 t20 51.5q0 29 -20 49t-49 20t-49.5 -20.5t-20.5 -48.5z" />
<glyph unicode="&#xe6;" horiz-adv-x="1462" d="M49 256q0 168 105.5 230.5t199.5 95.5l74 24l35 15l125 49v39q0 125 -105 125q-98 0 -98 -123v-27h-287v246q127 55 220.5 77.5t195.5 22.5q131 0 236 -51q53 29 108 40t137 11q188 0 296 -74.5t108 -210.5v-301h-527v-135q0 -53 34 -86t89 -33q119 0 119 148h285v-246 q-115 -63 -202 -87.5t-193 -24.5q-135 0 -216 28.5t-151 104.5q-160 -133 -322 -133q-123 0 -194.5 73.5t-71.5 202.5zM354 287q0 -33 22.5 -55.5t57.5 -22.5q64 0 154 86v172q-154 -74 -194 -104.5t-40 -75.5zM872 623h244v28q0 61 -14.5 114.5t-104.5 53.5 q-125 0 -125 -166v-30z" />
<glyph unicode="&#xe7;" horiz-adv-x="921" d="M63 319v390q0 150 109 235.5t297 85.5q102 0 201.5 -28.5t189.5 -86.5v-280h-270v24q0 160 -123 160q-119 0 -119 -135v-350q0 -141 119 -141q45 0 75.5 22.5t38 51t8.5 59t1 55.5v31h270v-320q-121 -90 -342 -112l-24 -64q86 0 105 -19.5t19 -97.5v-26q0 -98 -23.5 -126 t-107.5 -28q-57 0 -78.5 19.5t-21.5 70.5v21l2 10h70q0 -41 28 -43q23 0 27 14.5t4 91.5q0 47 -31 47q-29 0 -28 -40h-70l51 170q-129 0 -220 48t-124 107.5t-33 183.5z" />
<glyph unicode="&#xe8;" horiz-adv-x="940" d="M63 309v410q0 143 109 227t299 84q221 0 314.5 -90t93.5 -229v-267h-529v-133q0 -119 121 -118q121 0 121 145h287v-246q-199 -111 -400 -110q-240 0 -313.5 75.5t-88 120.5t-14.5 131zM244 1374h215l78 -244h-131zM350 623h242v51q0 145 -119 145q-123 0 -123 -151v-45z " />
<glyph unicode="&#xe9;" horiz-adv-x="940" d="M63 309v410q0 143 109 227t299 84q221 0 314.5 -90t93.5 -229v-267h-529v-133q0 -119 121 -118q121 0 121 145h287v-246q-199 -111 -400 -110q-240 0 -313.5 75.5t-88 120.5t-14.5 131zM350 623h242v51q0 145 -119 145q-123 0 -123 -151v-45zM408 1130l77 244h215 l-161 -244h-131z" />
<glyph unicode="&#xea;" horiz-adv-x="940" d="M63 309v410q0 143 109 227t299 84q221 0 314.5 -90t93.5 -229v-267h-529v-133q0 -119 121 -118q121 0 121 145h287v-246q-199 -111 -400 -110q-240 0 -313.5 75.5t-88 120.5t-14.5 131zM211 1130l160 242h204l156 -242h-164l-98 156l-98 -156h-160zM350 623h242v51 q0 145 -119 145q-123 0 -123 -151v-45z" />
<glyph unicode="&#xeb;" horiz-adv-x="940" d="M63 309v410q0 143 109 227t299 84q221 0 314.5 -90t93.5 -229v-267h-529v-133q0 -119 121 -118q121 0 121 145h287v-246q-199 -111 -400 -110q-240 0 -313.5 75.5t-88 120.5t-14.5 131zM180 1247q0 47 35 82t82 35t82 -35t35 -82t-35 -82t-82 -35t-82 35t-35 82zM350 623 h242v51q0 145 -119 145q-123 0 -123 -151v-45zM528 1251q0 47 35 82t84 35q47 0 82 -35t35 -82q0 -49 -35 -83.5t-82 -34.5q-49 0 -84 34.5t-35 83.5z" />
<glyph unicode="&#xec;" horiz-adv-x="516" d="M31 1374h215l78 -244h-131zM55 0v205l6 2q39 10 48.5 34.5t9.5 112.5v301q0 86 -10.5 112t-47.5 36l-6 2v205h348v-656q0 -90 6.5 -110.5t41.5 -32.5l12 -4l4 -207h-412z" />
<glyph unicode="&#xed;" horiz-adv-x="516" d="M53 0v205l6 2q39 10 48.5 34.5t9.5 112.5v301q0 86 -10.5 112t-47.5 36l-6 2v205h348v-656q0 -90 6.5 -110.5t41.5 -32.5l12 -4l4 -207h-412zM195 1130l77 244h215l-161 -244h-131z" />
<glyph unicode="&#xee;" horiz-adv-x="516" d="M-23 1130l160 242h205l156 -242h-164l-98 156l-99 -156h-160zM53 0v205l6 2q39 10 48.5 34.5t9.5 112.5v301q0 86 -10.5 112t-47.5 36l-6 2v205h348v-656q0 -90 6.5 -110.5t41.5 -32.5l12 -4l4 -207h-412z" />
<glyph unicode="&#xef;" horiz-adv-x="516" d="M-27 1255q0 47 35 82t82 35t82 -34.5t35 -82.5q0 -47 -35 -81.5t-82 -34.5t-82 34.5t-35 81.5zM53 0v205l6 2q39 10 48.5 34.5t9.5 112.5v301q0 86 -10.5 112t-47.5 36l-6 2v205h348v-656q0 -90 6.5 -110.5t41.5 -32.5l12 -4l4 -207h-412zM266 1251q0 47 35 82t84 35 q47 0 82 -35t35 -82q0 -49 -35 -83.5t-82 -34.5q-49 0 -84 34.5t-35 83.5z" />
<glyph unicode="&#xf0;" horiz-adv-x="937" d="M63 293v432q0 135 102.5 219t270.5 84l99 -4q-14 47 -28.5 75.5t-37.5 65.5l-178 -104l-49 84l161 94q-43 31 -73.5 45t-71.5 25l29 94q98 -27 139 -44.5t96 -51.5l168 98l49 -84l-131 -76q145 -125 207 -258t62 -325v-357q0 -324 -412 -323q-401 0 -402 311zM350 330 q0 -137 123 -137q117 0 117 137v360q0 129 -123 129q-53 0 -85 -36t-32 -93v-360z" />
<glyph unicode="&#xf1;" horiz-adv-x="1067" d="M53 0v205l6 2q37 10 47.5 35.5t10.5 111.5v301q0 86 -10.5 112t-47.5 36l-6 2v205h350v-62q74 47 127.5 63.5t124.5 16.5q139 0 217 -75.5t78 -209.5v-389q0 -86 10.5 -111.5t49.5 -35.5l6 -2v-205h-328q-25 80 -24 172v86v397q0 72 -33 113t-94 41q-31 0 -58.5 -10.5 t-75.5 -36.5v-408q0 -88 10.5 -113.5t47.5 -33.5l8 -2v-205h-416zM254 1135q0 86 43 135t113 49q37 0 111.5 -24.5t105.5 -24.5q25 0 38 9t23 34h127q-23 -182 -156 -183q-20 0 -45.5 6.5t-87 24t-84.5 17.5q-47 0 -59 -43h-129z" />
<glyph unicode="&#xf2;" horiz-adv-x="937" d="M63 293v432q0 141 108 222t292 81q254 0 334 -97.5t80 -228.5v-397q0 -90 -20.5 -139t-73 -92t-137.5 -67.5t-181 -24.5q-401 0 -402 311zM242 1374h215l78 -244h-132zM350 330q0 -137 123 -137q117 0 117 137v360q0 127 -123 127q-51 0 -84 -35t-33 -92v-360z" />
<glyph unicode="&#xf3;" horiz-adv-x="937" d="M63 293v432q0 141 108 222t292 81q254 0 334 -97.5t80 -228.5v-397q0 -90 -20.5 -139t-73 -92t-137.5 -67.5t-181 -24.5q-401 0 -402 311zM350 330q0 -137 123 -137q117 0 117 137v360q0 127 -123 127q-51 0 -84 -35t-33 -92v-360zM406 1130l77 244h215l-161 -244h-131z " />
<glyph unicode="&#xf4;" horiz-adv-x="937" d="M63 293v432q0 141 108 222t292 81q254 0 334 -97.5t80 -228.5v-397q0 -90 -20.5 -139t-73 -92t-137.5 -67.5t-181 -24.5q-401 0 -402 311zM209 1130l160 242h204l156 -242h-164l-98 156l-98 -156h-160zM350 330q0 -137 123 -137q117 0 117 137v360q0 127 -123 127 q-51 0 -84 -35t-33 -92v-360z" />
<glyph unicode="&#xf5;" horiz-adv-x="937" d="M63 293v432q0 141 108 222t292 81q254 0 334 -97.5t80 -228.5v-397q0 -90 -20.5 -139t-73 -92t-137.5 -67.5t-181 -24.5q-401 0 -402 311zM190 1135q0 86 43 135t113 49q37 0 111.5 -24.5t105.5 -24.5q25 0 38.5 9t23.5 34h127q-23 -182 -156 -183q-20 0 -46 6.5 t-87.5 24t-83.5 17.5q-47 0 -60 -43h-129zM350 330q0 -137 123 -137q117 0 117 137v360q0 127 -123 127q-51 0 -84 -35t-33 -92v-360z" />
<glyph unicode="&#xf6;" horiz-adv-x="937" d="M63 293v432q0 141 108 222t292 81q254 0 334 -97.5t80 -228.5v-397q0 -90 -20.5 -139t-73 -92t-137.5 -67.5t-181 -24.5q-401 0 -402 311zM178 1247q0 47 35 82t82 35t82 -35t35 -82t-35 -82t-82 -35t-82 35t-35 82zM350 330q0 -137 123 -137q117 0 117 137v360 q0 127 -123 127q-51 0 -84 -35t-33 -92v-360zM526 1251q0 47 35 82t84 35q47 0 82 -35t35 -82q0 -49 -35 -83.5t-82 -34.5q-49 0 -84 34.5t-35 83.5z" />
<glyph unicode="&#xf7;" horiz-adv-x="1064" d="M96 588v246h875v-246h-875zM389 346q0 59 43.5 102.5t102.5 43.5q57 0 100 -43t43 -103q0 -59 -42 -101t-101 -42t-102.5 41t-43.5 102zM389 1079q0 59 43.5 102.5t102.5 43.5q57 0 100 -43t43 -103q0 -59 -42 -101t-101 -42t-102.5 41t-43.5 102z" />
<glyph unicode="&#xf8;" horiz-adv-x="937" d="M63 293v432q0 141 108 222t292 81q86 0 166 -20l45 82l188 -107l-43 -78q37 -55 47.5 -92t10.5 -111v-397q0 -90 -20.5 -139t-73 -92t-137.5 -67.5t-181 -24.5q-72 0 -148 18l-47 -82l-192 105l49 79q-35 39 -49.5 81t-14.5 110zM350 330q0 -137 123 -137q117 0 117 137 v360q0 127 -123 127q-51 0 -84 -35t-33 -92v-360z" />
<glyph unicode="&#xf9;" horiz-adv-x="1052" d="M37 805v205h330q14 -49 18 -84t4 -125v-447q0 -72 33 -112.5t96 -40.5q57 0 133 49v405q0 86 -10 113t-47 35l-6 2v205h348v-656q0 -88 10 -113.5t49 -33.5l9 -2v-205h-353v61q-80 -45 -136 -61t-124 -16q-156 0 -222.5 85t-66.5 205v381q0 86 -10 114t-47 34zM299 1374 h215l78 -244h-131z" />
<glyph unicode="&#xfa;" horiz-adv-x="1052" d="M37 805v205h330q14 -49 18 -84t4 -125v-447q0 -72 33 -112.5t96 -40.5q57 0 133 49v405q0 86 -10 113t-47 35l-6 2v205h348v-656q0 -88 10 -113.5t49 -33.5l9 -2v-205h-353v61q-80 -45 -136 -61t-124 -16q-156 0 -222.5 85t-66.5 205v381q0 86 -10 114t-47 34zM463 1130 l78 244h215l-162 -244h-131z" />
<glyph unicode="&#xfb;" horiz-adv-x="1052" d="M37 805v205h330q14 -49 18 -84t4 -125v-447q0 -72 33 -112.5t96 -40.5q57 0 133 49v405q0 86 -10 113t-47 35l-6 2v205h348v-656q0 -88 10 -113.5t49 -33.5l9 -2v-205h-353v61q-80 -45 -136 -61t-124 -16q-156 0 -222.5 85t-66.5 205v381q0 86 -10 114t-47 34zM266 1130 l160 242h205l155 -242h-163l-99 156l-98 -156h-160z" />
<glyph unicode="&#xfc;" horiz-adv-x="1052" d="M37 805v205h330q14 -49 18 -84t4 -125v-447q0 -72 33 -112.5t96 -40.5q57 0 133 49v405q0 86 -10 113t-47 35l-6 2v205h348v-656q0 -88 10 -113.5t49 -33.5l9 -2v-205h-353v61q-80 -45 -136 -61t-124 -16q-156 0 -222.5 85t-66.5 205v381q0 86 -10 114t-47 34zM207 1247 q0 47 35 82t82 35t81.5 -35t34.5 -82t-34.5 -82t-81.5 -35t-82 35t-35 82zM555 1251q0 47 35 82t84 35q47 0 82 -35t35 -82q0 -49 -35 -83.5t-82 -34.5q-49 0 -84 34.5t-35 83.5z" />
<glyph unicode="&#xfd;" horiz-adv-x="931" d="M14 807v203h400v-203q-41 -10 -41 -45q0 -23 8 -53l102 -385l99 397l4 35q0 37 -39 51v203h373v-203q-29 -12 -42.5 -32.5t-25.5 -65.5l-199 -709q-53 -193 -135 -273.5t-225 -80.5q-29 0 -47.5 2t-50.5 10v219q57 0 86 18.5t49 69.5l-252 756q-14 43 -24.5 57.5 t-39.5 28.5zM403 1130l78 244h213l-159 -244h-132z" />
<glyph unicode="&#xfe;" horiz-adv-x="1021" d="M51 -150q43 14 52.5 38t9.5 112v1012q0 88 -8.5 110.5t-49.5 36.5l-4 207h348v-424q78 51 129.5 69.5t120.5 18.5q160 0 248 -100q63 -66 64 -205v-438q0 -147 -81 -226t-229 -79q-61 0 -104 12t-148 59v-53q0 -92 6.5 -106.5t22.5 -26.5l18 -10q4 0 7.5 -1t5.5 -3 l2 -207h-410v204zM399 246q78 -45 140 -45q135 0 135 159v332q0 53 -35 86t-92 33q-68 0 -148 -57v-508z" />
<glyph unicode="&#xff;" horiz-adv-x="931" d="M14 807v203h400v-203q-41 -10 -41 -45q0 -23 8 -53l102 -385l99 397l4 35q0 37 -39 51v203h373v-203q-29 -12 -42.5 -32.5t-25.5 -65.5l-199 -709q-53 -193 -135 -273.5t-225 -80.5q-29 0 -47.5 2t-50.5 10v219q57 0 86 18.5t49 69.5l-252 756q-14 43 -24.5 57.5 t-39.5 28.5zM197 1247q0 47 34.5 82t81.5 35t82 -35t35 -82t-35 -82t-82 -35t-81.5 35t-34.5 82zM545 1251q0 47 35 82t84 35q47 0 81.5 -35t34.5 -82q0 -49 -34.5 -83.5t-81.5 -34.5q-49 0 -84 34.5t-35 83.5z" />
<glyph unicode="&#x152;" horiz-adv-x="1611" d="M68 330v700q0 365 448 365q150 0 232 -29h796v-424h-297l2 35q0 66 -31.5 92.5t-111.5 26.5h-148v-275h383v-231h-383v-330h134q106 0 130.5 26.5t24.5 149.5v17h297v-453h-796q-109 -29 -228 -29q-147 0 -256.5 45t-152.5 118t-43 196zM381 436q0 -102 34 -144t115 -42 q141 0 142 172v528q0 80 -38 124t-106 44q-147 0 -147 -176v-506z" />
<glyph unicode="&#x153;" horiz-adv-x="1466" d="M63 291v434q0 141 106.5 223t295.5 82q84 0 143.5 -14.5t126.5 -50.5q117 66 264 65q225 0 315.5 -93t90.5 -230v-267h-528v-135q0 -115 120 -115q55 0 88 33t33 92v19h287v-242q-180 -113 -399 -112q-96 0 -153.5 12t-127.5 47q-113 -59 -262 -59q-399 0 -400 311z M350 334q0 -143 123 -144q117 1 117 138v360q0 61 -31 96t-88 35q-55 0 -88 -34.5t-33 -96.5v-354zM877 618h241v52q0 150 -117 149q-125 0 -124 -157v-44z" />
<glyph unicode="&#x178;" horiz-adv-x="1013" d="M10 1145v221h406v-158q0 -104 28 -164l86 -178l86 176q18 37 24.5 72t6.5 105v147h357v-221q-25 -6 -41.5 -23.5t-40.5 -70.5l-263 -514v-179q0 -74 13.5 -99.5t58.5 -37.5v-221h-455v221q45 12 58.5 38t13.5 99v166l-254 525q-25 49 -42 70.5t-42 25.5zM242 1585 q0 47 34.5 82t81.5 35t82 -35t35 -82t-34.5 -82t-82.5 -35q-47 0 -81.5 35t-34.5 82zM590 1585q0 47 35 82t84 35q47 0 81.5 -35t34.5 -82q0 -49 -34.5 -84t-81.5 -35q-49 0 -84 35t-35 84z" />
<glyph unicode="&#x2c6;" horiz-adv-x="1024" d="M252 1130l160 242h204l156 -242h-164l-98 156l-98 -156h-160z" />
<glyph unicode="&#x2dc;" horiz-adv-x="1024" d="M231 1135q0 86 43 135t113 49q37 0 111.5 -24.5t105.5 -24.5q25 0 38.5 9t23.5 34h127q-23 -182 -156 -183q-20 0 -46 6.5t-87.5 24t-83.5 17.5q-47 0 -60 -43h-129z" />
<glyph unicode="&#x2000;" horiz-adv-x="915" />
<glyph unicode="&#x2001;" horiz-adv-x="1831" />
<glyph unicode="&#x2002;" horiz-adv-x="915" />
<glyph unicode="&#x2003;" horiz-adv-x="1831" />
<glyph unicode="&#x2004;" horiz-adv-x="610" />
<glyph unicode="&#x2005;" horiz-adv-x="457" />
<glyph unicode="&#x2006;" horiz-adv-x="305" />
<glyph unicode="&#x2007;" horiz-adv-x="305" />
<glyph unicode="&#x2008;" horiz-adv-x="228" />
<glyph unicode="&#x2009;" horiz-adv-x="366" />
<glyph unicode="&#x200a;" horiz-adv-x="101" />
<glyph unicode="&#x2010;" horiz-adv-x="438" d="M0 449v215h438v-215h-438z" />
<glyph unicode="&#x2011;" horiz-adv-x="438" d="M0 449v215h438v-215h-438z" />
<glyph unicode="&#x2012;" horiz-adv-x="438" d="M0 449v215h438v-215h-438z" />
<glyph unicode="&#x2013;" horiz-adv-x="1064" d="M115 449v215h833v-215h-833z" />
<glyph unicode="&#x2014;" horiz-adv-x="1310" d="M0 449v215h1311v-215h-1311z" />
<glyph unicode="&#x2018;" horiz-adv-x="481" d="M109 1126q0 82 49 152t143 115l41 -62q-37 -27 -55.5 -46t-32.5 -50q119 -16 119 -121q0 -53 -37 -92t-90 -39q-61 0 -99 40t-38 103z" />
<glyph unicode="&#x2019;" horiz-adv-x="481" d="M109 1262q0 53 36.5 92t90.5 39q61 0 99 -40t38 -104q0 -172 -193 -268l-41 63q39 31 54.5 46.5t33.5 50.5q-53 6 -85.5 38.5t-32.5 82.5z" />
<glyph unicode="&#x201a;" horiz-adv-x="481" d="M109 123q0 53 36.5 92t90.5 39q61 0 99 -40t38 -103q0 -80 -51.5 -152t-141.5 -115l-41 62q37 27 53.5 45t34.5 51q-53 6 -85.5 39t-32.5 82z" />
<glyph unicode="&#x201c;" horiz-adv-x="858" d="M109 1126q0 82 49 152t143 115l41 -62q-37 -27 -55.5 -46t-32.5 -50q119 -16 119 -121q0 -53 -37 -92t-90 -39q-61 0 -99 40t-38 103zM483 1126q0 80 51.5 152t141.5 115l43 -62q-37 -27 -55.5 -46t-32.5 -50q117 -16 117 -121q0 -53 -37 -92t-90 -39q-61 0 -99.5 40 t-38.5 103z" />
<glyph unicode="&#x201d;" horiz-adv-x="858" d="M109 1262q0 53 36.5 92t90.5 39q61 0 99 -40t38 -104q0 -172 -193 -268l-41 63q39 31 54.5 46.5t33.5 50.5q-53 6 -85.5 38.5t-32.5 82.5zM483 1262q0 53 37 92t90 39q61 0 99.5 -40t38.5 -104q0 -80 -52.5 -152.5t-140.5 -115.5l-41 63q37 27 55.5 46.5t32.5 50.5 q-53 6 -86 38.5t-33 82.5z" />
<glyph unicode="&#x201e;" horiz-adv-x="858" d="M109 123q0 53 36.5 92t90.5 39q61 0 99 -40t38 -103q0 -82 -49.5 -152t-143.5 -115l-41 62q37 27 53.5 45t34.5 51q-53 6 -85.5 39t-32.5 82zM483 123q0 53 37 92t90 39q61 0 99.5 -40t38.5 -103q0 -80 -51.5 -152t-141.5 -115l-41 62q37 27 55.5 46t32.5 50 q-53 6 -86 39t-33 82z" />
<glyph unicode="&#x2022;" horiz-adv-x="1366" d="M401 694q0 117 83 200t204 83q117 0 199 -82t82 -201q0 -117 -82 -200.5t-199 -83.5q-121 0 -204 82.5t-83 201.5z" />
<glyph unicode="&#x2026;" horiz-adv-x="1546" d="M113 121q0 61 43 104t104 43t104.5 -43t43.5 -104t-43 -104.5t-105 -43.5q-61 0 -104 43t-43 105zM629 121q0 61 43 104t104 43t104.5 -43t43.5 -104t-43 -104.5t-105 -43.5q-61 0 -104 43t-43 105zM1143 121q0 61 43 104t104 43t104.5 -43t43.5 -104t-43 -104.5 t-105 -43.5q-61 0 -104 43t-43 105z" />
<glyph unicode="&#x202f;" horiz-adv-x="366" />
<glyph unicode="&#x2039;" horiz-adv-x="434" d="M82 543l106 270h164l-108 -270l108 -271h-164z" />
<glyph unicode="&#x203a;" horiz-adv-x="434" d="M82 272l108 271l-108 270h164l106 -270l-106 -271h-164z" />
<glyph unicode="&#x205f;" horiz-adv-x="457" />
<glyph unicode="&#x2122;" horiz-adv-x="1597" d="M10 1040v326h670v-326h-170v90q0 41 -13.5 57.5t-47.5 20.5v-413q0 -41 7 -52.5t36 -17.5v-137h-295v137q29 4 37 16.5t8 53.5v413q-61 -8 -62 -82v-86h-170zM729 1229v137h330l90 -344l90 344h317v-137q-31 -6 -38 -17.5t-7 -52.5v-364q0 -41 7.5 -52.5t37.5 -17.5v-137 h-294v137q29 6 36 17.5t7 52.5v254l-134 -461h-102l-125 452v-245q0 -37 6 -48.5t33 -21.5l6 -2v-135h-258v137q27 6 35 18.5t8 51.5v364q0 41 -7 53.5t-38 16.5z" />
<glyph unicode="&#x25fc;" horiz-adv-x="1013" d="M0 0v1014h1014v-1014h-1014z" />
</font>
</defs>
</svg>
