<?xml version="1.0" standalone="no"?>
<!DOCTYPE svg PUBLIC "-//W3C//DTD SVG 1.1//EN" "http://www.w3.org/Graphics/SVG/1.1/DTD/svg11.dtd" >
<svg xmlns="http://www.w3.org/2000/svg">
<metadata></metadata>
<defs>
<font id="aachenbold" horiz-adv-x="1456" >
<font-face units-per-em="2048" ascent="1638" descent="-410" />
<missing-glyph horiz-adv-x="688" />
<glyph horiz-adv-x="0" />
<glyph unicode="&#xd;" horiz-adv-x="0" />
<glyph unicode=" "  horiz-adv-x="688" />
<glyph unicode="&#x09;" horiz-adv-x="688" />
<glyph unicode="&#xa0;" horiz-adv-x="688" />
<glyph unicode="!" horiz-adv-x="880" d="M170 1534q0 242 278 242q113 0 178.5 -32.5t89.5 -85.5t24 -127q0 -42 -4 -75l-160 -928h-240l-160 928q-6 48 -6 78zM208 208q0 53 18.5 94.5t53.5 71.5t77 44t91 14q61 0 117.5 -29t89.5 -81t33 -114q0 -48 -16.5 -91t-49.5 -77.5t-77 -53t-97 -18.5 q-105 0 -172.5 70.5t-67.5 169.5z" />
<glyph unicode="$" horiz-adv-x="1328" d="M32 1216q0 93 25.5 176.5t80.5 152t140.5 112t201.5 55.5v160h400v-160q73 -17 148 -43t142.5 -61.5t109.5 -71.5v-400h-512v96q0 71 -24 106t-59 35q-40 0 -74.5 -37t-34.5 -88q6 -56 37.5 -95.5t71.5 -60t84 -32t95 -20.5q162 -43 254 -96.5t139.5 -148t54.5 -251.5 q1 -18 1 -52q0 -132 -43.5 -226t-139 -153t-250.5 -81v-176h-400v176q-106 15 -223.5 55t-192.5 105v448h496v-144q0 -55 38 -93t85 -38q42 0 71.5 36.5t29.5 110.5q0 65 -52.5 109.5t-115.5 66t-168 48.5q-93 19 -169.5 57t-130 94.5t-85 140t-31.5 188.5z" />
<glyph unicode="%" horiz-adv-x="1856" d="M32 1088v208v256q0 114 97.5 177t238.5 63q164 0 258 -56t94 -200v-432q0 -138 -102 -189t-234 -51q-62 0 -145 18.5t-145 68.5t-62 137zM352 1136q0 -48 32 -48q22 0 27 10t5 38v352q0 32 -5.5 48t-26.5 16t-26.5 -16t-5.5 -48v-352zM464 0l640 1760h352l-640 -1760 h-352zM1184 208v432q0 114 97.5 177t238.5 63q164 0 258 -56t94 -200v-416q0 -138 -102 -189t-234 -51q-115 0 -228.5 52t-123.5 188zM1504 224q0 -48 32 -48q22 0 27 10t5 38v352q0 32 -5.5 48t-26.5 16t-26.5 -16t-5.5 -48v-352z" />
<glyph unicode="&#x26;" horiz-adv-x="1488" d="M64 480q0 87 12 161.5t65.5 155.5t162.5 131q-126 27 -177.5 125t-51.5 217q0 37 5 74q14 141 102.5 236.5t221 140t280.5 44.5q45 0 100 -5q166 -13 333.5 -60t258.5 -116v-336h-544q0 77 -19.5 110.5t-76.5 33.5q-112 0 -112 -176q0 -79 45.5 -114t111.5 -35q26 0 51 5 v80h544v-80h64v-336h-64v-736h-880q-131 0 -218 44t-132.5 112.5t-63.5 151t-18 172.5zM624 544q0 -67 24 -121.5t88 -54.5h96v368h-96q-65 0 -88.5 -52.5t-23.5 -139.5z" />
<glyph unicode="'" horiz-adv-x="688" d="M138 1572q0 78 52 133t146 55q114 0 174.5 -63.5t60.5 -165.5q0 -85 -43 -171q-38 -76 -99 -143t-141 -113l-96 80q64 64 98.5 106.5t45.5 85.5q-91 0 -144.5 59t-53.5 137z" />
<glyph unicode="(" horiz-adv-x="960" d="M72 694q0 293 120 522q43 92 93 178.5t113 172.5t130 161l208 -144q-224 -498 -224 -896q-2 -30 -2 -89q0 -138 23.5 -269t74.5 -274.5t128 -295.5l-208 -160q-58 58 -120 142t-113 168.5t-92 168.5t-59 145q-72 240 -72 470z" />
<glyph unicode=")" horiz-adv-x="960" d="M128 -240q81 130 136 276.5t83.5 307.5t28.5 328q0 494 -232 912l208 144q192 -192 320 -448q52 -108 83.5 -203t48 -191t16.5 -193q0 -245 -116 -549q-18 -62 -74.5 -166.5t-134 -216t-143.5 -177.5z" />
<glyph unicode="*" horiz-adv-x="1088" d="M80 1328l80 208l288 -96l-16 304h240l-16 -304l304 96l80 -208l-304 -96l192 -240l-192 -144l-176 256l-176 -256l-192 144l176 240z" />
<glyph unicode="," horiz-adv-x="688" d="M110 217q0 56 24.5 105t72.5 79.5t113 30.5q144 0 209 -79.5t65 -194.5q0 -90 -34 -158q-29 -51 -77 -112.5t-99 -112t-96 -79.5l-112 96q64 64 98.5 109.5t45.5 98.5q-100 6 -155 69.5t-55 147.5z" />
<glyph unicode="-" horiz-adv-x="688" d="M0 480v416h688v-416h-688z" />
<glyph unicode="." horiz-adv-x="688" d="M96 208q0 53 18.5 97t53 77t77.5 49.5t91 16.5q102 0 171 -62.5t69 -177.5q0 -75 -35.5 -130t-91.5 -82.5t-113 -27.5q-93 0 -166.5 64t-73.5 176z" />
<glyph unicode="/" horiz-adv-x="1216" d="M-16 -448l624 2032l48 144h400l-608 -1984l-64 -192h-400z" />
<glyph unicode="0" horiz-adv-x="1376" d="M32 528v704q0 170 59.5 281t155 167t210.5 76t247 20q112 0 217 -17.5t202.5 -71.5t159 -162t61.5 -277v-736q0 -171 -56 -281t-149 -167t-200.5 -76.5t-234.5 -19.5q-230 0 -379.5 63t-221 187.5t-71.5 309.5zM576 512q0 -81 22.5 -120.5t89.5 -39.5t89.5 41.5 t22.5 134.5v720q0 70 -31 107t-81 37q-74 0 -93 -38t-19 -106v-736z" />
<glyph unicode="1" horiz-adv-x="928" d="M128 0v320q43 21 53.5 50.5t10.5 77.5v848q0 52 -11 84.5t-53 43.5v320h608v-1296q0 -40 11 -73.5t53 -54.5v-320h-672z" />
<glyph unicode="2" d="M64 0v448q0 87 22 161t79.5 143t154.5 128q79 45 212.5 108.5t195.5 96.5t88 67q33 40 33 101q0 56 -30 97.5t-83 41.5q-128 0 -128 -160v-112h-528v448q114 97 287.5 142t386.5 45q106 0 222 -11q131 -13 227 -89t146.5 -191t50.5 -241q0 -90 -25.5 -174t-77.5 -156.5 t-129 -124.5q-34 -23 -99 -56t-123 -60.5t-126 -59.5t-100 -48q-61 -25 -94.5 -73t-33.5 -119h50q97 0 146.5 35t59.5 157h512v-544h-1296z" />
<glyph unicode="3" horiz-adv-x="1376" d="M64 160v480h512v-144q0 -69 29.5 -104.5t74.5 -35.5q27 0 56 12q36 18 57.5 63t21.5 99q0 86 -51.5 146t-155.5 60h-192v336h160q126 0 177 43t51 119q0 14 -4 46q-10 58 -43 89t-73 31q-42 0 -75 -33t-33 -87v-112h-512v416q65 56 167.5 99t224.5 68t232 25 q170 0 312 -36t239.5 -139.5t104.5 -288.5q0 -110 -17 -182.5t-66 -122t-141 -79.5q80 -40 129 -91t73 -109.5t31 -116.5t7 -131q-8 -98 -32.5 -181.5t-91.5 -159.5t-197.5 -123.5t-334.5 -47.5q-110 0 -232 25t-229 68t-179 99z" />
<glyph unicode="4" horiz-adv-x="1408" d="M16 416v416l608 912h624v-960h112v-368h-112q0 -69 64 -112v-304h-704v288q47 23 71.5 57t24.5 71h-688zM464 784h240v352z" />
<glyph unicode="5" horiz-adv-x="1328" d="M32 176v496h528v-160q0 -53 5 -85t25.5 -53.5t65.5 -21.5q59 8 78 37.5t19 78.5q0 15 -0.5 24t-0.5 20v224q0 55 -33 85t-77 30q-34 0 -58 -18.5t-24 -48.5h-528v960h1232v-464h-512q0 51 -11.5 73.5t-51.5 30.5t-129 8v-224q38 16 102 27t127 11q91 0 175 -19.5 t156.5 -63t120.5 -117t55 -174.5q13 -150 13 -252q0 -177 -47.5 -311t-180.5 -217.5t-376 -83.5h-33q-109 0 -227.5 25t-225 71.5t-187.5 111.5z" />
<glyph unicode="6" horiz-adv-x="1376" d="M47 494q0 33 1 50v704q0 143 42 251.5t173 185t377 91.5q36 2 55 2q161 0 342 -55t275 -139v-384h-528v80q0 54 -20 83t-76 29q-57 0 -74.5 -46t-17.5 -134q0 -97 -4 -140q47 32 115 48t146 16q76 0 139 -16q198 -47 275 -169.5t77 -358.5q0 -211 -43.5 -342t-183 -206.5 t-413.5 -75.5q-247 0 -392.5 67t-205 184.5t-59.5 274.5zM592 480q0 -63 30.5 -97.5t73.5 -34.5q42 0 73 35t31 97v176q0 56 -31 88t-73 32t-73 -31.5t-31 -88.5v-176z" />
<glyph unicode="7" horiz-adv-x="1328" d="M48 1040v704h1264v-336l-528 -1408h-592l528 1392q-92 0 -150 -25t-58 -119v-208h-464z" />
<glyph unicode="8" d="M63 484q0 7 0.5 12.5t0.5 15.5q7 116 37.5 198t84.5 130t134 72q-227 95 -227 360q0 27 3 56q12 228 172.5 338t483.5 110q150 0 268 -29t203.5 -88.5t132 -146.5t52.5 -200q2 -28 2 -42q0 -238 -210 -358q91 -38 144 -102t74.5 -140.5t21.5 -157.5q0 -9 0.5 -16.5 t0.5 -19.5q0 -278 -172 -393t-517 -115q-302 0 -495.5 121t-193.5 395zM640 560q0 -67 5.5 -112.5t30.5 -78.5t76 -33q65 0 88.5 61t23.5 163q0 192 -112 192q-73 0 -92.5 -56t-19.5 -136zM640 1232q0 -176 112 -176q61 0 86.5 42.5t25.5 149.5q0 68 -19 106t-93 38 q-65 0 -88.5 -43.5t-23.5 -116.5z" />
<glyph unicode="9" horiz-adv-x="1376" d="M48 1072v208q0 247 156.5 379.5t483.5 132.5q216 0 358 -46t220 -172.5t78 -357.5v-720q0 -280 -172 -404t-452 -124q-108 0 -203 12.5t-169 33t-144 54.5t-124 76v384h496q11 -71 18.5 -101.5t32.5 -52.5t77 -22q65 0 88.5 85t23.5 219q-130 -52 -289 -52q-44 0 -79 4 q-131 17 -219 74.5t-134.5 157t-46.5 232.5zM592 1072q0 -63 30.5 -97.5t73.5 -34.5q42 0 73 35t31 97v192q0 62 -31 97t-73 35t-73 -34.5t-31 -97.5v-192z" />
<glyph unicode=":" horiz-adv-x="688" d="M96 208q0 53 18.5 97t53 77t77.5 49.5t91 16.5q102 0 171 -62.5t69 -177.5q0 -75 -35.5 -130t-91.5 -82.5t-113 -27.5q-93 0 -166.5 64t-73.5 176zM96 943q0 53 18.5 97t53 77t77.5 49.5t91 16.5q102 0 171 -62.5t69 -177.5q0 -75 -35.5 -130t-91.5 -82.5t-113 -27.5 q-93 0 -166.5 64t-73.5 176z" />
<glyph unicode=";" horiz-adv-x="688" d="M110 217q0 56 24.5 105t72.5 79.5t113 30.5q144 0 209 -79.5t65 -194.5q0 -90 -34 -158q-29 -51 -77 -112.5t-99 -112t-96 -79.5l-112 96q64 64 98.5 109.5t45.5 98.5q-100 6 -155 69.5t-55 147.5zM112 943q0 53 18.5 97t53 77t77.5 49.5t91 16.5q102 0 171 -62.5 t69 -177.5q0 -75 -35.5 -130t-91.5 -82.5t-113 -27.5q-93 0 -166.5 64t-73.5 176z" />
<glyph unicode="?" horiz-adv-x="1408" d="M80 1136v448q76 48 138 80.5t140 58.5t170.5 39.5t207.5 13.5q100 0 200.5 -21.5t195 -75.5t156 -145.5t72.5 -221.5q1 -14 1 -41q0 -183 -76.5 -289.5t-196.5 -181.5q-14 -8 -69 -33.5t-88 -48.5t-58.5 -64t-25.5 -102q0 -16 1 -24h-480v256q0 63 28.5 110.5t76 84 t108 70.5t155.5 87q28 13 51 57t23 90q0 82 -74 109q-17 5 -33 5q-45 0 -78 -31.5t-33 -101.5v-128h-512zM400 208q0 96 64 160t160 64q64 0 119.5 -26.5t88 -76.5t32.5 -121q0 -105 -70.5 -172.5t-169.5 -67.5q-97 0 -160.5 66.5t-63.5 173.5z" />
<glyph unicode="A" d="M16 0v320q37 37 52.5 71t27.5 105l224 1248h784l240 -1264q26 -129 96 -176v-304h-688v304q43 32 53.5 66t10.5 94h-272q0 -41 3 -65t17.5 -48.5t43.5 -46.5v-304h-592zM592 800h160l-80 512z" />
<glyph unicode="B" horiz-adv-x="1536" d="M80 0v320q54 22 67 61t13 115v720q0 84 -13.5 132.5t-66.5 59.5v336h672q229 0 373.5 -24.5t237.5 -119t93 -288.5q0 -107 -29 -191t-93 -138.5t-166 -70.5q87 -10 149 -46.5t99.5 -90t55.5 -119.5t18 -142q0 -16 -2 -50q-7 -107 -33.5 -187.5t-91.5 -143.5t-179 -98 t-288 -35h-816zM688 368q84 0 132 12.5t71 46.5t23 101q0 31 -2 48q-10 104 -48 132t-120 28h-56v-368zM688 1056q124 0 175 23.5t51 102.5q0 10 -2 34q-11 102 -59 131t-165 29v-320z" />
<glyph unicode="C" horiz-adv-x="1408" d="M64 512v720q0 138 36.5 240.5t110 170t184.5 100.5t261 33q219 0 384.5 -40.5t319.5 -135.5v-496h-544v192q0 48 -26.5 76t-62.5 28q-41 0 -72 -35.5t-31 -100.5v-800q0 -55 31 -87.5t72 -32.5q37 0 63 30.5t26 89.5v272h544v-560q-57 -91 -239.5 -141.5t-400.5 -50.5 q-297 0 -476.5 127.5t-179.5 400.5z" />
<glyph unicode="D" horiz-adv-x="1488" d="M64 0v320q55 22 67.5 55t12.5 105v800q0 47 -18.5 90t-61.5 54v320h816q152 0 277 -35.5t212 -149t87 -327.5v-688q0 -149 -43.5 -268.5t-168 -197.5t-348.5 -78h-832zM704 368q32 -5 55 -5q137 0 137 149v720q0 79 -43.5 103.5t-148.5 24.5v-992z" />
<glyph unicode="E" horiz-adv-x="1408" d="M80 0v320q50 24 50 97q0 21 -0.5 34t-1.5 29v816q0 96 -48 144v304h1312v-608h-512v112q0 57 -41.5 86.5t-104.5 29.5q-25 0 -46 -4v-320h352v-336h-352v-336q15 -2 42 -2q77 0 113.5 36t36.5 94v128h512v-624h-1312z" />
<glyph unicode="F" horiz-adv-x="1328" d="M64 1424v320h1280v-608h-480v112q0 58 -24.5 83t-68 32t-83.5 13v-336h336v-336h-336v-224q0 -41 2 -65t12.5 -48t33.5 -47v-320h-656v320q64 43 64 144v832q0 101 -80 128z" />
<glyph unicode="G" horiz-adv-x="1408" d="M64 544v720q0 240 151.5 369.5t452.5 129.5q47 0 100 -3q164 -12 302.5 -59t273.5 -133v-432h-528v112q0 49 -13.5 81.5t-35.5 49.5t-49 17q-43 0 -76.5 -44t-33.5 -120v-752q0 -62 32.5 -98t75.5 -36q40 0 70 31.5t30 86.5v176h-80v336h608v-832q-39 -46 -143 -86.5 t-234 -65t-231 -24.5q-25 -1 -72 -1q-144 0 -254.5 28t-187 93t-117.5 177.5t-41 278.5z" />
<glyph unicode="H" horiz-adv-x="1584" d="M80 0v304q39 31 52 71.5t13 91.5q0 22 -0.5 34.5t-0.5 26.5v720q0 68 -11 114t-53 78v304h656v-304q-32 -32 -40 -72t-8 -104v-192h192v208q1 16 1.5 28.5t0.5 30.5q0 64 -50 101v304h672v-304q-40 -40 -52.5 -77t-12.5 -87q0 -18 0.5 -33.5t0.5 -42.5v-688 q0 -80 10.5 -128t53.5 -80v-304h-672v304q32 21 40 56.5t8 87.5v288h-192v-240q0 -51 2 -81.5t12.5 -59t33.5 -51.5v-304h-656z" />
<glyph unicode="I" horiz-adv-x="800" d="M64 0v304q39 31 52 64.5t13 78.5q0 21 -0.5 35t-0.5 30v752q0 14 0.5 25.5t0.5 28.5q0 41 -13 70t-52 52v304h688v-304q-43 -32 -53.5 -72t-10.5 -104v-768q0 -47 4 -78.5t9.5 -46.5t17 -30t33.5 -37v-304h-688z" />
<glyph unicode="J" horiz-adv-x="848" d="M-16 0v320q28 -5 47 -5q90 0 125.5 63t35.5 150v688q1 24 1.5 43t0.5 47q0 97 -50 134v304h656v-304q-34 -34 -41 -65t-7 -111v-720q1 -20 1.5 -37.5t0.5 -53.5q0 -282 -178 -405q-114 -86 -344 -86q-146 0 -248 38z" />
<glyph unicode="K" horiz-adv-x="1536" d="M80 0v304q39 16 52 63t13 119q0 31 -0.5 49.5t-0.5 40.5v640q0 84 -11 135.5t-53 72.5v320h656v-320q-32 -32 -40 -78t-8 -114v-192l144 224q37 61 50.5 105t13.5 103v272h592v-320q-29 -12 -51 -31.5t-38 -43.5t-44.5 -74t-42.5 -75l-160 -256l240 -480q40 -80 63 -115 t65 -45v-304h-624v224q0 88 -48 208l-160 304v-240q0 -44 2.5 -75.5t12.5 -62.5t33 -54v-304h-656z" />
<glyph unicode="L" horiz-adv-x="1376" d="M48 0v304q40 16 52.5 46t12.5 73q0 19 -0.5 31t-0.5 26v784q1 16 1.5 29.5t0.5 33.5q0 73 -50 97v320h656v-320q-39 -15 -52 -50t-13 -93q0 -20 0.5 -37t0.5 -44v-832q95 0 135.5 30t40.5 130v320h496v-848h-1280z" />
<glyph unicode="M" horiz-adv-x="1904" d="M96 0v320q40 8 52.5 31t12.5 65q0 20 -0.5 34t-0.5 30v784q0 17 0.5 30.5t0.5 33.5q0 43 -13 70t-52 42v304h704l176 -672l176 672h672v-304q-32 -24 -45 -49t-16 -65.5t-3 -141.5v-672q0 -67 3 -99t16.5 -54.5t44.5 -38.5v-320h-656v320q28 12 42 27t18.5 37t4.5 58 q0 29 -0.5 51.5t-0.5 50.5v384l-240 -928h-160l-240 912v-400q0 -60 3 -92.5t17.5 -58.5t43.5 -41v-320h-560z" />
<glyph unicode="N" horiz-adv-x="1584" d="M96 0v320q65 39 65 134q0 20 -0.5 32t-0.5 26v736q0 17 0.5 30.5t0.5 34.5q0 43 -12.5 73.5t-52.5 53.5v304h592l304 -784v304q1 16 1.5 29.5t0.5 33.5q0 76 -50 113v304h560v-304q-44 -33 -54 -68.5t-10 -107.5v-1264h-528l-336 784v-272q0 -51 3 -81t17.5 -55t43.5 -40 v-336h-544z" />
<glyph unicode="O" d="M80 528v720q0 133 40.5 232t122 164.5t208.5 98.5t301 33q228 0 370 -54t206 -166t64 -292v-784q0 -172 -61.5 -285t-201.5 -170t-377 -57t-386 63t-217.5 186.5t-68.5 310.5zM640 512q0 -72 23.5 -116t88.5 -44q56 0 76 40t20 120v736q0 58 -5 86t-24.5 43t-66.5 15 q-59 0 -85.5 -35.5t-26.5 -108.5v-736z" />
<glyph unicode="P" d="M80 0v320q40 17 52.5 47t12.5 78q0 22 -0.5 36t-0.5 31v720q0 17 0.5 30.5t0.5 33.5q0 43 -13 70t-52 42v336h816q100 0 199.5 -27t180.5 -84t130.5 -150.5t49.5 -218.5v-288q0 -480 -528 -480h-224q0 -31 -0.5 -46.5t-1.5 -34.5q0 -37 9.5 -58t40.5 -37v-320h-672z M704 864q34 -4 50 -4q142 0 142 148v192q0 94 -41 127t-151 33v-496z" />
<glyph unicode="Q" horiz-adv-x="1408" d="M64 496v704q0 145 37.5 250.5t114.5 173.5t198.5 102t289.5 34q223 0 373.5 -54.5t224.5 -168.5t74 -289v-752q0 -98 -23 -178.5t-89 -157.5l112 -96l-176 -320q-125 45 -223.5 102t-176.5 122q-33 -4 -83 -4q-111 0 -236.5 23.5t-192.5 60.5q-95 54 -159.5 167.5 t-64.5 280.5zM608 528q0 -55 5.5 -90t30.5 -60.5t76 -25.5q59 0 78 31.5t19 90.5q0 18 -0.5 29.5t-0.5 24.5v688q0 93 -25 126.5t-87 33.5q-96 0 -96 -160v-688z" />
<glyph unicode="R" horiz-adv-x="1536" d="M64 0v304q43 33 53.5 76.5t10.5 131.5v720q0 17 0.5 30.5t0.5 33.5q0 43 -13 70t-52 42v336h800q576 0 576 -464q0 -137 -32 -220t-86.5 -125.5t-137.5 -70.5q132 -22 178 -91t46 -181v-128q0 -64 10.5 -101.5t53.5 -58.5v-304h-592q-32 96 -32 368v160q0 84 -45 113.5 t-131 46.5v-208q0 -72 11 -118.5t53 -57.5v-304h-672zM672 1024h38q75 0 123 28.5t48 118.5q0 19 -1 29q-11 115 -52 145.5t-156 30.5v-352z" />
<glyph unicode="S" d="M64 1264q0 116 37 208.5t109.5 156t185.5 98t259 34.5q32 0 49 -1q98 0 185.5 -13.5t165.5 -37.5t142.5 -55t130.5 -70v-416h-512v96q0 63 -27.5 94.5t-66.5 31.5q-34 0 -63 -22t-35 -56q-3 -16 -3 -30q0 -75 60.5 -115t152 -60.5t158.5 -34.5q145 -35 234.5 -108 t131 -172.5t41.5 -221.5q0 -119 -39 -250q-45 -149 -149 -223t-227.5 -96.5t-295.5 -32.5q-77 0 -207.5 23.5t-247 71t-153.5 113.5v448h544v-112q0 -147 100 -147q13 0 28 3q54 11 67 47.5t13 112.5q0 78 -80.5 121.5t-228 80t-187.5 54.5q-112 45 -172.5 119t-80 163.5 t-19.5 197.5z" />
<glyph unicode="T" horiz-adv-x="1536" d="M16 960v784h1504v-784h-400v304q0 36 -13.5 60.5t-66.5 35.5v-864q0 -155 64 -176v-320h-672v304q65 26 65 144q0 24 -0.5 36.5t-0.5 27.5v848q-53 0 -66.5 -30t-13.5 -82v-288h-400z" />
<glyph unicode="U" horiz-adv-x="1488" d="M64 1424v320h672v-320q-43 -21 -53.5 -66.5t-10.5 -125.5v-672q0 -80 5.5 -120.5t30 -64t76.5 -23.5q60 0 78.5 33t18.5 104q0 23 -0.5 38t-0.5 33v656q0 18 0.5 32.5t0.5 38.5q0 53 -13 87.5t-52 49.5v320h656v-320q-53 -32 -66.5 -88t-13.5 -152v-656q0 -97 -18 -189.5 t-82 -182t-188 -140.5q-118 -54 -329 -54q-103 0 -202 15t-157 39q-177 80 -233 201.5t-56 258.5q0 19 0.5 33.5t0.5 34.5v672q0 15 0.5 27t0.5 34q0 108 -65 147z" />
<glyph unicode="V" horiz-adv-x="1408" d="M16 1424v320h688v-320q-60 -20 -60 -98q0 -22 6 -61t6 -49l112 -672l96 672q0 10 6 49t6 61q0 78 -60 98v320h608v-320q-33 -33 -49.5 -77t-30.5 -115l-240 -1232h-752l-240 1168q-23 183 -96 256z" />
<glyph unicode="W" horiz-adv-x="2032" d="M16 1440v304h672v-304q-30 -14 -40 -43t-10 -71q1 -19 1.5 -35t0.5 -43l64 -432l176 928h336l192 -928l64 464q0 64 -10.5 101.5t-53.5 58.5v304h592v-304q-32 -32 -48 -80t-32 -128l-240 -1232h-528l-144 832l-160 -832h-528l-208 1232q-22 109 -96 208z" />
<glyph unicode="X" horiz-adv-x="1408" d="M0 0v304q43 32 78 89t50 103l256 432l-208 320q-25 39 -48 75t-47.5 68t-48.5 49v304h640v-192q0 -91 80 -224q41 68 60.5 118.5t19.5 105.5v192h560v-304q-80 -80 -96 -112l-256 -400l256 -480q8 -12 22 -35t24 -39.5t24.5 -37.5t25.5 -32v-304h-656v208q0 144 -96 288 q-51 -89 -73.5 -154t-22.5 -134v-208h-544z" />
<glyph unicode="Y" horiz-adv-x="1408" d="M16 1440v304h624v-240q0 -54 13 -104t32 -93t51 -107q32 48 53 99t32 104.5t11 100.5v240h560v-304q-80 -80 -128 -176l-288 -592v-224q0 -59 13.5 -89.5t50.5 -54.5v-304h-672v304q44 33 54 60.5t10 83.5v208l-272 544q-5 10 -35 81t-55 111.5t-54 47.5z" />
<glyph unicode="Z" horiz-adv-x="1488" d="M80 0v320l656 1056q-127 0 -191.5 -28t-64.5 -116v-176h-400v688h1328v-304l-688 -1072q38 -2 55 -2q79 0 128 15.5t70.5 40.5t28 60.5t6.5 85.5v40v128h416v-736h-1344z" />
<glyph unicode="[" horiz-adv-x="832" d="M48 -384v2032v112h752v-320h-272v-1504h272v-320h-752z" />
<glyph unicode="]" horiz-adv-x="832" d="M48 -64h272v1504h-272v320h752v-2032v-112h-752v320z" />
<glyph unicode="_" horiz-adv-x="1008" d="M0 0h1024v-432h-1024v432z" />
<glyph unicode="`" horiz-adv-x="768" d="M176 1760h352l112 -336h-240z" />
<glyph unicode="a" horiz-adv-x="1296" d="M32 352q0 104 50.5 181t126.5 122.5t159 64.5l352 112q0 17 0.5 31.5t0.5 35.5q0 47 -12.5 74.5t-52.5 34.5q-14 2 -20 2q-46 0 -69 -48t-23 -130h-448v320q220 160 592 160q95 0 188.5 -20.5t170.5 -66t123 -120t46 -177.5v-512q0 -29 5 -48t13 -31t21 -24.5t25 -24.5 v-288h-528v96q-13 -8 -56 -38t-76 -47.5t-85 -30t-119 -12.5q-76 0 -141.5 20.5t-118 65t-85.5 119t-39 179.5zM528 400q0 -82 64 -82q34 0 74 22.5t54 43.5v144q-48 -8 -120 -38t-72 -90z" />
<glyph unicode="b" horiz-adv-x="1296" d="M32 1440v304h560v-512q128 64 288 64q32 2 46 2q155 0 238.5 -88t83.5 -282v-528q0 -126 -46.5 -211.5t-124.5 -133.5t-172.5 -67.5t-200.5 -19.5q-110 0 -201.5 12t-191.5 50t-215 114v1152q0 123 -64 144zM592 336q54 -20 89 -20q47 0 67 38t20 126v336q0 125 -80 125 q-40 0 -96 -29v-208v-368z" />
<glyph unicode="c" horiz-adv-x="1248" d="M80 400v464q0 113 26 193t86 132.5t165.5 79.5t266.5 27q191 0 336.5 -36t223.5 -124v-336h-448v80q0 64 -13.5 96t-66.5 32q-38 0 -59 -19t-29 -55t-8 -86v-400q0 -62 4 -96.5t21.5 -57t54.5 -22.5q56 0 76 40t20 120v112h448v-400q-60 -60 -150 -100t-191.5 -59.5 t-187.5 -19.5q-34 0 -63 3q-110 7 -194.5 25t-157 62.5t-116.5 129t-44 215.5z" />
<glyph unicode="d" horiz-adv-x="1296" d="M47 343q0 27 1 41v528q0 70 15.5 137.5t52 123t103.5 90t167 34.5q20 0 30 -1q94 0 148 -15.5t140 -64.5v80q0 120 -48 144v304h528v-1232q0 -71 3 -109.5t17.5 -69t43.5 -45.5v-288h-544v48q-44 -44 -131.5 -62t-188.5 -18q-67 0 -128.5 20.5t-108.5 66t-73.5 118.5 t-26.5 170zM528 544q0 -111 23.5 -160t74.5 -49q32 0 78 17v560q-56 28 -93 28q-83 0 -83 -140v-256z" />
<glyph unicode="e" horiz-adv-x="1248" d="M64 400v480q0 171 65.5 265.5t190.5 130.5t320 36q247 0 403.5 -84.5t156.5 -283.5v-400h-656v-128q0 -64 24.5 -97t58.5 -33q31 0 54 26t23 72v96h496v-336q-41 -41 -136.5 -81.5t-219 -67.5t-236.5 -27q-180 8 -301 53t-182 137.5t-61 241.5zM544 832h192 q0 91 -19.5 133.5t-76.5 42.5t-76.5 -42.5t-19.5 -133.5z" />
<glyph unicode="f" horiz-adv-x="768" d="M32 0v288q43 21 53.5 58.5t10.5 101.5v544h-64v288h64v112q0 94 32 182.5t103.5 145t184.5 56.5q104 0 183 -5.5t153 -26.5v-288q-82 0 -129 -38t-47 -138h144v-288h-144v-528q0 -84 10 -119t54 -57v-288h-608z" />
<glyph unicode="g" horiz-adv-x="1328" d="M64 336v512q0 146 27.5 241t107.5 151t233 56q100 0 170 -16t134 -80v80h544v-288q-64 -43 -64 -144v-896q0 -152 -34 -245.5t-99.5 -141.5t-158.5 -67t-236 -26q-34 -2 -52 -2q-95 0 -205 22.5t-201.5 60t-133.5 79.5v304h464q0 -51 4 -79.5t21.5 -46.5t54.5 -18 q41 0 62.5 11.5t28 32.5t6.5 57q0 19 -0.5 31.5t-0.5 27.5v112q-128 -96 -288 -96q-188 0 -286 98t-98 270zM560 528q0 -69 7.5 -111.5t27.5 -62.5t55 -20q33 0 86 18v576q-42 21 -78 21q-98 0 -98 -133v-288z" />
<glyph unicode="h" horiz-adv-x="1376" d="M64 0v304q43 22 53.5 53t10.5 91v832q0 56 -11 95t-53 49v320h560v-496q37 28 101.5 44.5t136.5 16.5q168 0 293 -82.5t125 -250.5v-496q0 -60 3 -92t17.5 -54.5t43.5 -29.5v-304h-528q-32 224 -32 384v432q0 68 -23 106t-70 38q-29 0 -67 -16v-512q0 -34 2.5 -57 t13 -43.5t32.5 -27.5v-304h-608z" />
<glyph unicode="i" horiz-adv-x="688" d="M48 0v288q30 15 40 36t10 54q0 21 -0.5 36t-1.5 34v400q0 55 -10 77.5t-38 50.5v304h544v-832q0 -144 64 -144v-304h-608zM64 1568q0 68 40 115.5t102 70t130 22.5q105 0 180.5 -53.5t75.5 -154.5q0 -102 -78 -155t-194 -53q-107 0 -181.5 61.5t-74.5 146.5z" />
<glyph unicode="j" horiz-adv-x="688" d="M-32 -160q22 -3 41 -3q48 0 73 20.5t35.5 66t10.5 124.5v656q0 32 0.5 57t0.5 58q0 65 -12 99t-53 58v304h544v-1264q1 -30 1.5 -55t0.5 -68q0 -68 -10.5 -125.5t-43.5 -110t-92 -89.5q-112 -62 -263 -62q-129 0 -233 46v288zM80 1584q0 56 33.5 99t92.5 68t130 25 q112 0 186 -49.5t86 -142.5q2 -16 2 -24q0 -88 -75.5 -144t-198.5 -56q-124 0 -190 66t-66 158z" />
<glyph unicode="k" horiz-adv-x="1328" d="M32 0v304q30 16 44 37t17 47t3 76v816q0 60 -11 107.5t-53 68.5v288h560v-816q97 86 120.5 141t23.5 131v80h544v-272q-30 -10 -58.5 -39.5t-53.5 -56.5l-128 -176l160 -336q19 -58 96 -96v-304h-448l-256 560v-144q0 -23 6 -43t20 -36.5t38 -32.5v-304h-624z" />
<glyph unicode="l" horiz-adv-x="688" d="M48 0v288q42 21 53 62.5t11 97.5v832q0 76 -10.5 112.5t-53.5 47.5v304h544v-1264q0 -60 3 -92.5t17.5 -58.5t43.5 -41v-288h-608z" />
<glyph unicode="m" horiz-adv-x="2032" d="M48 976l16 304h544v-64q73 61 141 86.5t163 25.5q102 0 160.5 -24t127.5 -104q96 64 170.5 96t181.5 32q368 0 368 -352v-512q0 -155 64 -176v-288h-528q-8 90 -11 144t-4 102.5t-1 105.5v448v26q0 133 -98 133q-31 0 -78 -15v-512q0 -101 64 -144v-288h-528 q-8 90 -11 144t-4 102.5t-1 105.5v448q0 67 -18 113.5t-81 46.5q-32 0 -77 -16v-512q0 -62 14.5 -97t49.5 -47v-288h-608v288q43 32 53.5 66t10.5 94v352q0 156 -80 176z" />
<glyph unicode="n" horiz-adv-x="1376" d="M48 0v304q43 21 53.5 58.5t10.5 101.5v384q0 107 -64 128v304h560v-48q74 53 147 66.5t173 13.5q152 0 230.5 -61.5t100 -135t21.5 -139.5v-512q0 -73 14 -112.5t50 -63.5v-288h-544q-11 127 -13.5 213.5t-2.5 186.5v400q0 61 -29 105t-79 44q-30 0 -68 -21v-480 q0 -101 64 -144v-304h-624z" />
<glyph unicode="o" horiz-adv-x="1248" d="M48 448v448q0 155 54 244.5t178.5 130.5t343.5 41q218 0 343 -37.5t179 -127t54 -251.5v-480q0 -136 -35.5 -221.5t-105.5 -130.5t-174.5 -62.5t-260.5 -17.5q-154 0 -258.5 19.5t-175.5 70t-106.5 141t-35.5 233.5zM528 416q0 -62 28.5 -97t67.5 -35q25 0 46.5 15 t35.5 44.5t14 72.5v496q0 35 -14 60.5t-35 38.5t-47 13q-39 0 -67.5 -33t-28.5 -95v-480z" />
<glyph unicode="p" horiz-adv-x="1328" d="M48 -144q43 21 53.5 58.5t10.5 101.5v800q0 155 -64 176v288h544v-64q75 45 149 70.5t171 25.5q112 0 190.5 -36.5t120 -108t41.5 -175.5v-576q0 -72 -6 -129.5t-34.5 -122.5t-92.5 -114t-171 -66q-37 -6 -82 -6q-183 0 -286 86q0 -96 10.5 -146.5t53.5 -61.5v-320h-608 v320zM592 352q54 -21 94 -21q98 0 98 149v336q0 140 -94 140q-42 0 -98 -28v-576z" />
<glyph unicode="q" horiz-adv-x="1296" d="M48 368v608q0 141 85 238.5t283 97.5q47 0 108.5 -11.5t113 -32.5t82.5 -52v64h464v-1312q0 -48 3 -70t17 -36.5t44 -21.5v-304h-592v304q38 29 54 61.5t16 91.5q0 36 -6 87q-43 -43 -124.5 -77.5t-179.5 -34.5q-59 0 -119.5 15t-118 57t-94 122.5t-36.5 205.5zM528 464 q0 -69 34.5 -107.5t85.5 -38.5q34 0 72 18v592q-49 29 -92 29q-45 0 -72.5 -34t-27.5 -91v-368z" />
<glyph unicode="r" horiz-adv-x="880" d="M48 0v288q43 32 53.5 66t10.5 94v400q0 80 -64 144v288h528v-80q26 35 48.5 60t59 42t90.5 17q35 0 74 -7v-464q-35 8 -66 8q-85 0 -145.5 -46t-60.5 -122v-240q0 -133 80 -160v-288h-608z" />
<glyph unicode="s" horiz-adv-x="1216" d="M30 911q0 109 56 206.5t154 146.5q63 32 154 48t194 16t180 -16q54 -10 125 -31t143.5 -58t115.5 -87v-304h-448v80q0 52 -30 79t-71 27q-37 0 -64 -20t-27 -54q0 -45 24 -71t54.5 -36.5t129.5 -36.5q103 -19 161 -32.5t124.5 -48.5t114 -97t64.5 -158q8 -50 8 -89 q0 -138 -77 -227.5t-202 -129.5t-271 -40q-151 0 -290 38q-44 7 -108.5 33.5t-114 57t-65.5 53.5v336h464v-96q0 -55 31 -84.5t73 -29.5q36 0 63.5 23.5t27.5 63.5q0 13 -3 27q-11 49 -64 77.5t-108.5 40.5t-164.5 33t-143 41q-104 44 -157 130t-53 189z" />
<glyph unicode="t" horiz-adv-x="768" d="M16 992v288h64v256l496 128v-384h160v-288h-160v-512q0 -57 14 -96.5t49 -59.5t97 -20v-288q-112 -32 -320 -32q-77 0 -140.5 24t-105.5 66t-66 105.5t-24 140.5v672h-64z" />
<glyph unicode="u" horiz-adv-x="1328" d="M16 1008v272h512q48 -48 48 -160v-544q0 -119 16.5 -183.5t68.5 -64.5q33 0 75 24v528q0 48 -14 76t-50 52v272h560v-832q0 -62 14.5 -99.5t49.5 -60.5v-288h-560v64q-17 -17 -58.5 -35.5t-100.5 -31.5t-129 -13q-107 0 -179 24.5t-112.5 73t-58.5 122.5t-18 180v480 q0 59 -13.5 89.5t-50.5 54.5z" />
<glyph unicode="v" horiz-adv-x="1248" d="M16 992v288h592v-288q-42 -21 -42 -75q0 -29 12 -85.5t30 -127.5l48 -192l80 320q7 24 13.5 49t6.5 43q0 47 -52 68v288h544v-288q-33 -11 -49.5 -41t-30.5 -87l-256 -864h-576l-240 832q-16 64 -32 101.5t-48 58.5z" />
<glyph unicode="w" horiz-adv-x="1856" d="M16 992v288h624v-288q-11 -15 -22 -27t-17 -24.5t-6 -39.5q0 -33 13 -101l32 -160l176 640h320l176 -640l48 176q21 74 21 109q0 54 -53 67v288h528v-304q-25 -12 -41.5 -34.5t-33.5 -67.5t-36.5 -113t-64.5 -233l-144 -528h-480l-112 480l-144 -480h-464l-192 720 q-25 124 -53 186.5t-75 85.5z" />
<glyph unicode="x" horiz-adv-x="1216" d="M16 0v288q32 11 62 43t114 133l144 192l-112 144q-108 151 -208 176v304h560v-96q0 -64 10.5 -109.5t53.5 -98.5q53 53 66.5 98.5t13.5 109.5v96h496v-288q-36 -24 -78 -66t-66 -78l-160 -192l176 -240q50 -66 73 -91.5t55 -36.5v-288h-560v96q0 77 -19.5 130t-76.5 110 q-48 -60 -64 -110.5t-16 -145.5v-80h-464z" />
<glyph unicode="y" horiz-adv-x="1248" d="M16 992v288h640v-288q-52 -9 -52 -60q0 -24 16.5 -82t19.5 -82l64 -208l48 208q3 16 15.5 62.5t16.5 64.5t4 37q0 51 -52 60v288h544v-288q-29 -22 -47.5 -61t-33 -88.5t-31.5 -106.5l-256 -800q-46 -144 -74.5 -208t-73.5 -104.5t-124 -71.5q-78 -29 -183 -29 q-69 0 -130.5 12.5t-102.5 32.5v288q160 0 192 128l-240 672q-28 86 -42 132.5t-32.5 91t-37.5 70t-48 42.5z" />
<glyph unicode="z" horiz-adv-x="1216" d="M32 0v304l544 672q-29 -4 -61 -4h-34q-44 0 -62.5 -16t-18.5 -76v-80h-368v480h1168v-288l-560 -688q22 0 49.5 -1t50.5 -2q50 0 71 22.5t21 92.5v80h368v-496h-1168z" />
<glyph unicode="{" horiz-adv-x="832" d="M64 672q67 15 106 51t54.5 82t15.5 91v512q0 131 48.5 202t144.5 96.5t256 25.5q49 0 175 -4q-176 -66 -176 -336v-448q0 -98 -23.5 -155.5t-65 -83t-103.5 -33.5q94 -27 143 -93t49 -211v-544q0 -59 44.5 -122.5t131.5 -85.5q-87 -3 -161 -3q-167 0 -266.5 23t-148 82.5 t-48.5 169.5v560q0 99 -39 140.5t-137 83.5z" />
<glyph unicode="}" horiz-adv-x="832" d="M-16 -368q72 12 116 90.5t44 197.5v432q0 95 21.5 160.5t62.5 104t108 55.5q-192 64 -192 304v448q1 19 1.5 34.5t0.5 42.5q0 75 -32 130.5t-130 96.5q80 16 304 16q168 -20 237 -79.5t69 -165.5q0 -28 -2 -43v-496q0 -94 25.5 -153t61.5 -86t89 -49q-68 -26 -105 -54.5 t-54 -79t-17 -138.5v-464q0 -86 -10.5 -136t-45 -85.5t-104.5 -66.5q-64 -32 -200 -32q-88 0 -248 16z" />
<glyph unicode="&#xa1;" horiz-adv-x="880" d="M171 -271q0 27 2.5 61t2.5 50l176 896h224l160 -912q5 -48 5 -87q0 -96 -31.5 -156.5t-101.5 -60.5h-288q-59 0 -92.5 30.5t-45 76t-11.5 102.5zM224 1072q0 53 18.5 97t53 77t77.5 49.5t91 16.5q102 0 171 -62.5t69 -177.5q0 -75 -35.5 -130t-91.5 -82.5t-113 -27.5 q-93 0 -166.5 64t-73.5 176z" />
<glyph unicode="&#xa2;" horiz-adv-x="1216" d="M64 608v576q0 102 57 168t129 98.5t182 69.5v224h416v-224q160 -46 320 -160v-352h-464v128q0 42 -20.5 63t-51.5 21q-34 0 -61 -23.5t-27 -60.5v-480q0 -75 25.5 -115.5t59.5 -40.5q30 0 52.5 29.5t22.5 78.5v144h464v-384q-22 -38 -82 -76t-130 -61t-124 -23v-208h-416 v208q-87 0 -167.5 42t-132.5 132t-52 226z" />
<glyph unicode="&#xa3;" d="M80 0v320q36 12 50 40t14 88v224h-48v336h48v144q0 175 47.5 297.5t130 196t185.5 104t223 30.5q133 0 271.5 -34t247.5 -83.5t159 -94.5v-480h-496v176q0 57 -29 85.5t-71 28.5t-75 -30.5t-33 -83.5v-256h352v-336h-352v-304q17 -4 43 -4q38 0 77 11.5t63.5 34 t24.5 54.5v112h496v-576h-1328z" />
<glyph unicode="&#xa5;" horiz-adv-x="1376" d="M16 560v208h352l-32 64h-320v192h240l-96 192q-40 93 -67 139.5t-61 68.5v320h624v-240q0 -112 96 -304q51 76 73.5 144t22.5 160v240h544v-320q-48 -48 -112 -176l-128 -240h256v-192h-352l-32 -64h384v-208h-432v-96q0 -33 16 -78t48 -66v-304h-672v304q44 33 54 60.5 t10 83.5v112h-416z" />
<glyph unicode="&#xa8;" horiz-adv-x="1104" d="M192 1584q0 83 51.5 128.5t122.5 45.5q73 0 125.5 -44.5t52.5 -129.5t-53.5 -135.5t-126.5 -50.5q-70 0 -121 48.5t-51 137.5zM640 1584q6 80 59.5 124t122.5 44q45 0 83.5 -19t62.5 -57t24 -92q0 -91 -49.5 -141.5t-120.5 -50.5q-69 0 -122.5 50.5t-59.5 141.5z" />
<glyph unicode="&#xa9;" horiz-adv-x="1984" d="M48 864q7 278 143.5 483t345.5 309t423 104q185 0 353 -65.5t298.5 -188.5t203.5 -291t73 -367q0 -183 -70 -346.5t-195 -287.5t-285 -193t-334 -69h-28q-175 0 -342.5 65t-298.5 184t-209 289.5t-78 373.5zM303 858q0 -6 0.5 -11.5t0.5 -14.5q0 -124 52.5 -240 t143.5 -206t211 -142t249 -52q130 0 253 48.5t216.5 134.5t148 204.5t54.5 252.5q0 6 0.5 11.5t0.5 13.5q0 134 -53 253t-145 208.5t-203.5 138.5t-225.5 49q-31 0 -46 -2q-157 0 -310.5 -82.5t-250 -231.5t-96.5 -332zM440 865q0 105 33.5 201.5t100 174t169 122.5 t233.5 45q98 0 203 -30t187.5 -116t89.5 -238h-256q-11 90 -69.5 133t-138.5 43q-71 0 -123.5 -50t-79.5 -130.5t-27 -167.5q0 -127 56 -217.5t158 -90.5q85 0 149 33.5t75 110.5h240q1 -8 1 -24q0 -88 -55.5 -171.5t-165 -136t-260.5 -52.5q-162 0 -280 79.5t-179 208.5 t-61 273z" />
<glyph unicode="&#xaa;" horiz-adv-x="768" d="M0 816v80h800v-80h-800zM0 1200q7 94 50.5 145t123.5 80.5t274 78.5v64q0 22 -14 32t-36 10q-23 0 -42.5 -11.5t-19.5 -30.5v-64h-288v192q54 43 153 68.5t209 25.5q153 0 255.5 -54.5t102.5 -167.5v-304q0 -45 9.5 -70.5t22.5 -25.5v-176h-336v64q-77 -70 -207 -70 q-106 0 -181.5 55t-75.5 159zM336 1248q0 -60 39 -60q26 0 73 28v112q-18 -9 -44 -21.5t-39 -20.5t-21 -17t-8 -21z" />
<glyph unicode="&#xab;" horiz-adv-x="1057" d="M95 704l176 336h288l-176 -352l176 -320h-288zM497 704l176 336h288l-176 -352l176 -320h-288z" />
<glyph unicode="&#xad;" horiz-adv-x="688" d="M0 480v416h688v-416h-688z" />
<glyph unicode="&#xae;" horiz-adv-x="1600" d="M64 864q0 214 77.5 384.5t210 289.5t291 178.5t317.5 59.5q150 0 309.5 -53.5t300 -166.5t226.5 -283t92 -393q0 -150 -57.5 -310.5t-172.5 -298.5t-292 -225.5t-406 -93.5h-25q-153 0 -308.5 68t-283.5 191.5t-203.5 293t-75.5 359.5zM319 848q0 -8 0.5 -14.5t0.5 -17.5 q0 -144 88.5 -285.5t239 -232t328.5 -90.5q128 0 247 52.5t211.5 142t145 198t52.5 215.5q0 7 0.5 13t0.5 15q0 121 -46.5 242t-132.5 219.5t-205.5 157t-262.5 58.5q-9 0 -14 -0.5t-12 -0.5q-121 0 -235 -43.5t-206 -129.5t-146 -213t-54 -286zM576 432v944h544 q105 0 174 -39.5t99.5 -101.5t30.5 -131q0 -117 -55 -202.5t-185 -85.5l192 -384h-272l-160 384h-128v-384h-240zM816 992h256q53 0 80.5 30t27.5 73q0 47 -29.5 84t-78.5 37h-256v-224z" />
<glyph unicode="&#xb4;" horiz-adv-x="736" d="M176 1424l112 304h336l-208 -304h-240z" />
<glyph unicode="&#xb7;" horiz-adv-x="784" d="M79 737q0 21 1 31q4 99 50 168t118.5 103.5t154.5 34.5q63 0 121.5 -20t104.5 -58t75 -96.5t32 -131.5q1 -10 1 -31q0 -156 -98 -242.5t-231 -86.5t-231 86.5t-98 242.5z" />
<glyph unicode="&#xb8;" horiz-adv-x="608" d="M144 -304h144v112h-64q-23 0 -33.5 6t-12.5 18t-2 40v128h176v-80q112 0 112 -80v-192q0 -48 -4.5 -69t-25.5 -32t-66 -11h-224v160z" />
<glyph unicode="&#xba;" horiz-adv-x="752" d="M32 800v80h768v-80h-768zM48 1232v288q0 126 88.5 191t295.5 65q174 0 271 -64t97 -192v-288q0 -158 -94 -215t-290 -57q-121 0 -203 28t-123.5 88.5t-41.5 155.5zM352 1232q0 -40 19 -62t45 -22t45 22t19 62v256q0 52 -17.5 77t-43.5 25t-46.5 -28t-20.5 -74v-256z" />
<glyph unicode="&#xbb;" horiz-adv-x="1057" d="M112 320l176 368l-176 336h288l176 -352l-176 -352h-288zM528 320l176 368l-176 336h288l176 -352l-176 -352h-288z" />
<glyph unicode="&#xbf;" horiz-adv-x="1408" d="M89 9q0 96 32.5 188t101.5 168.5t177 130.5q83 42 124.5 69.5t57 51.5t19 58t7.5 77h464v-272q0 -81 -47.5 -135.5t-121 -95t-135.5 -73.5q-65 -37 -101.5 -87t-36.5 -102q0 -28 10 -51.5t38.5 -38.5t62.5 -15q50 0 86.5 30t36.5 88v144h480v-448q-75 -63 -179 -111.5 t-173 -48.5h-496q-58 0 -141.5 41t-151.5 110.5t-91 152.5q-23 84 -23 169zM576 1088q0 53 18.5 97t53 77t77.5 49.5t91 16.5q102 0 171 -62.5t69 -177.5q0 -75 -35.5 -130t-91.5 -82.5t-113 -27.5q-93 0 -166.5 64t-73.5 176z" />
<glyph unicode="&#xc0;" d="M16 0v320q37 37 52.5 71t27.5 105l224 1248h784l240 -1264q26 -129 96 -176v-304h-688v304q43 32 53.5 66t10.5 94h-272q0 -41 3 -65t17.5 -48.5t43.5 -46.5v-304h-592zM512 2239h352l112 -336h-240zM592 800h160l-80 512z" />
<glyph unicode="&#xc1;" d="M16 0v320q37 37 52.5 71t27.5 105l224 1248h784l240 -1264q26 -129 96 -176v-304h-688v304q43 32 53.5 66t10.5 94h-272q0 -41 3 -65t17.5 -48.5t43.5 -46.5v-304h-592zM592 800h160l-80 512zM625 1903l112 304h336l-208 -304h-240z" />
<glyph unicode="&#xc2;" d="M16 0v320q37 37 52.5 71t27.5 105l224 1248h784l240 -1264q26 -129 96 -176v-304h-688v304q43 32 53.5 66t10.5 94h-272q0 -41 3 -65t17.5 -48.5t43.5 -46.5v-304h-592zM383 1919l240 336h240l240 -336h-272l-80 128l-80 -128h-288zM592 800h160l-80 512z" />
<glyph unicode="&#xc3;" d="M16 0v320q37 37 52.5 71t27.5 105l224 1248h784l240 -1264q26 -129 96 -176v-304h-688v304q43 32 53.5 66t10.5 94h-272q0 -41 3 -65t17.5 -48.5t43.5 -46.5v-304h-592zM369 1935q11 130 98 201t174 71q34 0 123 -24t127 -24q51 0 70 32h176q0 -65 -33.5 -127.5 t-89.5 -103.5t-117 -41q-30 0 -59 6t-84 21t-77.5 21.5t-48.5 6.5q-48 0 -67 -39h-192zM592 800h160l-80 512z" />
<glyph unicode="&#xc4;" d="M16 0v320q37 37 52.5 71t27.5 105l224 1248h784l240 -1264q26 -129 96 -176v-304h-688v304q43 32 53.5 66t10.5 94h-272q0 -41 3 -65t17.5 -48.5t43.5 -46.5v-304h-592zM352 2080q0 83 51.5 128.5t122.5 45.5q73 0 125.5 -44.5t52.5 -129.5t-53.5 -135.5t-126.5 -50.5 q-70 0 -121 48.5t-51 137.5zM592 800h160l-80 512zM800 2080q6 80 59.5 124t122.5 44q45 0 83.5 -19t62.5 -57t24 -92q0 -91 -49.5 -141.5t-120.5 -50.5q-69 0 -122.5 50.5t-59.5 141.5z" />
<glyph unicode="&#xc5;" d="M16 0v320q37 37 52.5 71t27.5 105l224 1248h784l240 -1264q26 -129 96 -176v-304h-688v304q43 32 53.5 66t10.5 94h-272q0 -41 3 -65t17.5 -48.5t43.5 -46.5v-304h-592zM511 2175q4 76 41.5 127t95 77t124.5 26q99 0 172 -56t79 -158q0 -90 -35.5 -153.5t-95 -94 t-124.5 -30.5q-103 0 -180 69.5t-77 192.5zM592 800h160l-80 512zM687 2159q0 -34 23.5 -53t56.5 -19q32 0 56 19t24 53t-23.5 53t-56.5 19q-32 0 -56 -19t-24 -53z" />
<glyph unicode="&#xc6;" horiz-adv-x="2096" d="M16 0v304q22 28 39 59.5t27 57.5t27.5 81t18.5 58l384 1168h1552v-560h-496v96q0 50 -49 82.5t-111 32.5q-17 0 -32 -3v-304h352v-352h-352v-368q110 0 143 27.5t33 84.5v160h512v-624h-1296v304q35 23 51.5 47.5t16.5 67.5q0 22 -4 45h-272q-4 -27 -4 -52 q0 -49 17.5 -72.5t50.5 -35.5v-304h-608zM656 768h176v560z" />
<glyph unicode="&#xc7;" horiz-adv-x="1408" d="M64 496v720q0 138 36.5 240.5t110 170t184.5 100.5t261 33q219 0 384.5 -40.5t319.5 -135.5v-480h-544v176q0 37 -12 68t-31.5 46t-42.5 15q-43 0 -74.5 -54t-31.5 -155v-752q0 -62 28.5 -97t67.5 -35q25 0 46.5 15t35.5 44.5t14 72.5v272h544v-560q-41 -64 -140 -110.5 t-232.5 -72t-267.5 -25.5v-48h64q36 0 50 -25.5t14 -86.5v-160q0 -63 -29.5 -95.5t-98.5 -32.5h-208v176h144v128h-48q-28 0 -38 12.5t-10 67.5v80q-254 11 -375 166t-121 362z" />
<glyph unicode="&#xc8;" horiz-adv-x="1408" d="M80 0v320q50 24 50 97q0 21 -0.5 34t-1.5 29v816q0 96 -48 144v304h1312v-608h-512v112q0 57 -41.5 86.5t-104.5 29.5q-25 0 -46 -4v-320h352v-336h-352v-336q15 -2 42 -2q77 0 113.5 36t36.5 94v128h512v-624h-1312zM495 2225h352l112 -336h-240z" />
<glyph unicode="&#xc9;" horiz-adv-x="1408" d="M80 0v320q50 24 50 97q0 21 -0.5 34t-1.5 29v816q0 96 -48 144v304h1312v-608h-512v112q0 57 -41.5 86.5t-104.5 29.5q-25 0 -46 -4v-320h352v-336h-352v-336q15 -2 42 -2q77 0 113.5 36t36.5 94v128h512v-624h-1312zM592 1889l112 304h336l-208 -304h-240z" />
<glyph unicode="&#xca;" horiz-adv-x="1408" d="M80 0v320q50 24 50 97q0 21 -0.5 34t-1.5 29v816q0 96 -48 144v304h1312v-608h-512v112q0 57 -41.5 86.5t-104.5 29.5q-25 0 -46 -4v-320h352v-336h-352v-336q15 -2 42 -2q77 0 113.5 36t36.5 94v128h512v-624h-1312zM383 1872l240 336h240l240 -336h-272l-80 128 l-80 -128h-288z" />
<glyph unicode="&#xcb;" horiz-adv-x="1408" d="M80 0v320q50 24 50 97q0 21 -0.5 34t-1.5 29v816q0 96 -48 144v304h1312v-608h-512v112q0 57 -41.5 86.5t-104.5 29.5q-25 0 -46 -4v-320h352v-336h-352v-336q15 -2 42 -2q77 0 113.5 36t36.5 94v128h512v-624h-1312zM368 2112q0 83 51.5 128.5t122.5 45.5 q73 0 125.5 -44.5t52.5 -129.5t-53.5 -135.5t-126.5 -50.5q-70 0 -121 48.5t-51 137.5zM816 2112q6 80 59.5 124t122.5 44q45 0 83.5 -19t62.5 -57t24 -92q0 -91 -49.5 -141.5t-120.5 -50.5q-69 0 -122.5 50.5t-59.5 141.5z" />
<glyph unicode="&#xcc;" horiz-adv-x="800" d="M64 0v304q39 31 52 64.5t13 78.5q0 21 -0.5 35t-0.5 30v752q0 14 0.5 25.5t0.5 28.5q0 41 -13 70t-52 52v304h688v-304q-43 -32 -53.5 -72t-10.5 -104v-768q0 -47 4 -78.5t9.5 -46.5t17 -30t33.5 -37v-304h-688zM176 2225h352l112 -336h-240z" />
<glyph unicode="&#xcd;" horiz-adv-x="799" d="M64 0v304q39 31 52 64.5t13 78.5q0 21 -0.5 35t-0.5 30v752q0 14 0.5 25.5t0.5 28.5q0 41 -13 70t-52 52v304h688v-304q-43 -32 -53.5 -72t-10.5 -104v-768q0 -47 4 -78.5t9.5 -46.5t17 -30t33.5 -37v-304h-688zM319 1873l112 304h336l-208 -304h-240z" />
<glyph unicode="&#xce;" horiz-adv-x="800" d="M64 0v304q39 31 52 64.5t13 78.5q0 21 -0.5 35t-0.5 30v752q0 14 0.5 25.5t0.5 28.5q0 41 -13 70t-52 52v304h688v-304q-43 -32 -53.5 -72t-10.5 -104v-768q0 -47 4 -78.5t9.5 -46.5t17 -30t33.5 -37v-304h-688zM64 1872l240 336h240l240 -336h-272l-80 128l-80 -128 h-288z" />
<glyph unicode="&#xcf;" horiz-adv-x="799" d="M16 2080q0 83 51.5 128.5t122.5 45.5q73 0 125.5 -44.5t52.5 -129.5t-53.5 -135.5t-126.5 -50.5q-70 0 -121 48.5t-51 137.5zM64 0v304q39 31 52 64.5t13 78.5q0 21 -0.5 35t-0.5 30v752q0 14 0.5 25.5t0.5 28.5q0 41 -13 70t-52 52v304h688v-304q-43 -32 -53.5 -72 t-10.5 -104v-768q0 -47 4 -78.5t9.5 -46.5t17 -30t33.5 -37v-304h-688zM464 2080q6 80 59.5 124t122.5 44q45 0 83.5 -19t62.5 -57t24 -92q0 -91 -49.5 -141.5t-120.5 -50.5q-69 0 -122.5 50.5t-59.5 141.5z" />
<glyph unicode="&#xd1;" horiz-adv-x="1584" d="M96 0v320q65 39 65 134q0 20 -0.5 32t-0.5 26v736q0 17 0.5 30.5t0.5 34.5q0 43 -12.5 73.5t-52.5 53.5v304h592l304 -784v304q1 16 1.5 29.5t0.5 33.5q0 76 -50 113v304h560v-304q-44 -33 -54 -68.5t-10 -107.5v-1264h-528l-336 784v-272q0 -51 3 -81t17.5 -55t43.5 -40 v-336h-544zM416 1905q11 130 98 201t174 71q34 0 123 -24t127 -24q51 0 70 32h176q0 -65 -33.5 -127.5t-89.5 -103.5t-117 -41q-30 0 -59 6t-84 21t-77.5 21.5t-48.5 6.5q-48 0 -67 -39h-192z" />
<glyph unicode="&#xd2;" d="M80 528v720q0 133 40.5 232t122 164.5t208.5 98.5t301 33q228 0 370 -54t206 -166t64 -292v-784q0 -172 -61.5 -285t-201.5 -170t-377 -57t-386 63t-217.5 186.5t-68.5 310.5zM512 2225h352l112 -336h-240zM640 512q0 -72 23.5 -116t88.5 -44q56 0 76 40t20 120v736 q0 58 -5 86t-24.5 43t-66.5 15q-59 0 -85.5 -35.5t-26.5 -108.5v-736z" />
<glyph unicode="&#xd3;" d="M80 528v720q0 133 40.5 232t122 164.5t208.5 98.5t301 33q228 0 370 -54t206 -166t64 -292v-784q0 -172 -61.5 -285t-201.5 -170t-377 -57t-386 63t-217.5 186.5t-68.5 310.5zM592 1889l112 304h336l-208 -304h-240zM640 512q0 -72 23.5 -116t88.5 -44q56 0 76 40t20 120 v736q0 58 -5 86t-24.5 43t-66.5 15q-59 0 -85.5 -35.5t-26.5 -108.5v-736z" />
<glyph unicode="&#xd4;" d="M80 528v720q0 133 40.5 232t122 164.5t208.5 98.5t301 33q228 0 370 -54t206 -166t64 -292v-784q0 -172 -61.5 -285t-201.5 -170t-377 -57t-386 63t-217.5 186.5t-68.5 310.5zM383 1872l240 336h240l240 -336h-272l-80 128l-80 -128h-288zM640 512q0 -72 23.5 -116 t88.5 -44q56 0 76 40t20 120v736q0 58 -5 86t-24.5 43t-66.5 15q-59 0 -85.5 -35.5t-26.5 -108.5v-736z" />
<glyph unicode="&#xd5;" d="M80 528v720q0 133 40.5 232t122 164.5t208.5 98.5t301 33q228 0 370 -54t206 -166t64 -292v-784q0 -172 -61.5 -285t-201.5 -170t-377 -57t-386 63t-217.5 186.5t-68.5 310.5zM336 1905q11 130 98 201t174 71q34 0 123 -24t127 -24q51 0 70 32h176q0 -65 -33.5 -127.5 t-89.5 -103.5t-117 -41q-30 0 -59 6t-84 21t-77.5 21.5t-48.5 6.5q-48 0 -67 -39h-192zM640 512q0 -72 23.5 -116t88.5 -44q56 0 76 40t20 120v736q0 58 -5 86t-24.5 43t-66.5 15q-59 0 -85.5 -35.5t-26.5 -108.5v-736z" />
<glyph unicode="&#xd6;" d="M80 528v720q0 133 40.5 232t122 164.5t208.5 98.5t301 33q228 0 370 -54t206 -166t64 -292v-784q0 -172 -61.5 -285t-201.5 -170t-377 -57t-386 63t-217.5 186.5t-68.5 310.5zM368 2049q0 83 51.5 128.5t122.5 45.5q73 0 125.5 -44.5t52.5 -129.5t-53.5 -135.5 t-126.5 -50.5q-70 0 -121 48.5t-51 137.5zM640 512q0 -72 23.5 -116t88.5 -44q56 0 76 40t20 120v736q0 58 -5 86t-24.5 43t-66.5 15q-59 0 -85.5 -35.5t-26.5 -108.5v-736zM816 2049q6 80 59.5 124t122.5 44q45 0 83.5 -19t62.5 -57t24 -92q0 -91 -49.5 -141.5 t-120.5 -50.5q-69 0 -122.5 50.5t-59.5 141.5z" />
<glyph unicode="&#xd8;" d="M0 96l96 176q0 30 -8 114t-8 174v752q0 257 170.5 366t440.5 109q141 0 301 -27l96 160l352 -224l-96 -176q32 -54 40 -117t8 -171v-720q0 -211 -86 -334.5t-221 -171.5t-301 -48q-163 0 -352 42l-80 -128zM624 528q0 -87 32 -136.5t77 -49.5q46 0 80.5 49.5t34.5 136.5 v704q0 80 -32 121t-77 41q-29 0 -56 -19.5t-43 -55t-16 -87.5v-704z" />
<glyph unicode="&#xd9;" horiz-adv-x="1488" d="M64 1424v320h672v-320q-43 -21 -53.5 -66.5t-10.5 -125.5v-672q0 -80 5.5 -120.5t30 -64t76.5 -23.5q60 0 78.5 33t18.5 104q0 23 -0.5 38t-0.5 33v656q0 18 0.5 32.5t0.5 38.5q0 53 -13 87.5t-52 49.5v320h656v-320q-53 -32 -66.5 -88t-13.5 -152v-656q0 -97 -18 -189.5 t-82 -182t-188 -140.5q-118 -54 -329 -54q-103 0 -202 15t-157 39q-177 80 -233 201.5t-56 258.5q0 19 0.5 33.5t0.5 34.5v672q0 15 0.5 27t0.5 34q0 108 -65 147zM545 2225h352l112 -336h-240z" />
<glyph unicode="&#xda;" horiz-adv-x="1488" d="M64 1424v320h672v-320q-43 -21 -53.5 -66.5t-10.5 -125.5v-672q0 -80 5.5 -120.5t30 -64t76.5 -23.5q60 0 78.5 33t18.5 104q0 23 -0.5 38t-0.5 33v656q0 18 0.5 32.5t0.5 38.5q0 53 -13 87.5t-52 49.5v320h656v-320q-53 -32 -66.5 -88t-13.5 -152v-656q0 -97 -18 -189.5 t-82 -182t-188 -140.5q-118 -54 -329 -54q-103 0 -202 15t-157 39q-177 80 -233 201.5t-56 258.5q0 19 0.5 33.5t0.5 34.5v672q0 15 0.5 27t0.5 34q0 108 -65 147zM608 1889l112 304h336l-208 -304h-240z" />
<glyph unicode="&#xdb;" horiz-adv-x="1488" d="M64 1424v320h672v-320q-43 -21 -53.5 -66.5t-10.5 -125.5v-672q0 -80 5.5 -120.5t30 -64t76.5 -23.5q60 0 78.5 33t18.5 104q0 23 -0.5 38t-0.5 33v656q0 18 0.5 32.5t0.5 38.5q0 53 -13 87.5t-52 49.5v320h656v-320q-53 -32 -66.5 -88t-13.5 -152v-656q0 -97 -18 -189.5 t-82 -182t-188 -140.5q-118 -54 -329 -54q-103 0 -202 15t-157 39q-177 80 -233 201.5t-56 258.5q0 19 0.5 33.5t0.5 34.5v672q0 15 0.5 27t0.5 34q0 108 -65 147zM449 1889l240 336h240l240 -336h-272l-80 128l-80 -128h-288z" />
<glyph unicode="&#xdc;" horiz-adv-x="1488" d="M64 1424v320h672v-320q-43 -21 -53.5 -66.5t-10.5 -125.5v-672q0 -80 5.5 -120.5t30 -64t76.5 -23.5q60 0 78.5 33t18.5 104q0 23 -0.5 38t-0.5 33v656q0 18 0.5 32.5t0.5 38.5q0 53 -13 87.5t-52 49.5v320h656v-320q-53 -32 -66.5 -88t-13.5 -152v-656q0 -97 -18 -189.5 t-82 -182t-188 -140.5q-118 -54 -329 -54q-103 0 -202 15t-157 39q-177 80 -233 201.5t-56 258.5q0 19 0.5 33.5t0.5 34.5v672q0 15 0.5 27t0.5 34q0 108 -65 147zM415 2063q0 83 51.5 128.5t122.5 45.5q73 0 125.5 -44.5t52.5 -129.5t-53.5 -135.5t-126.5 -50.5 q-70 0 -121 48.5t-51 137.5zM863 2063q6 80 59.5 124t122.5 44q45 0 83.5 -19t62.5 -57t24 -92q0 -91 -49.5 -141.5t-120.5 -50.5q-69 0 -122.5 50.5t-59.5 141.5z" />
<glyph unicode="&#xdf;" horiz-adv-x="1328" d="M48 0v288q35 12 49.5 72.5t14.5 183.5v800q0 83 15.5 150.5t69.5 129t166 99t293 37.5q608 0 608 -352v-128q0 -91 -22.5 -159t-69 -106.5t-116.5 -38.5q105 -26 156.5 -89t51.5 -199v-320q0 -119 -28 -192.5t-81.5 -112.5t-131.5 -53.5t-186 -14.5q-73 0 -181 5v288 q71 0 99.5 37t28.5 123v192q0 72 -19.5 104t-52 41t-56.5 15v288q70 14 99 40.5t29 103.5v112q0 52 -27.5 83t-65.5 31q-40 0 -69.5 -41.5t-29.5 -120.5v-1296h-544z" />
<glyph unicode="&#xe0;" horiz-adv-x="1296" d="M32 352q0 104 50.5 181t126.5 122.5t159 64.5l352 112q0 17 0.5 31.5t0.5 35.5q0 47 -12.5 74.5t-52.5 34.5q-14 2 -20 2q-46 0 -69 -48t-23 -130h-448v320q220 160 592 160q95 0 188.5 -20.5t170.5 -66t123 -120t46 -177.5v-512q0 -29 5 -48t13 -31t21 -24.5t25 -24.5 v-288h-528v96q-13 -8 -56 -38t-76 -47.5t-85 -30t-119 -12.5q-76 0 -141.5 20.5t-118 65t-85.5 119t-39 179.5zM448 1776h352l112 -336h-240zM528 400q0 -82 64 -82q34 0 74 22.5t54 43.5v144q-48 -8 -120 -38t-72 -90z" />
<glyph unicode="&#xe1;" horiz-adv-x="1296" d="M32 352q0 104 50.5 181t126.5 122.5t159 64.5l352 112q0 17 0.5 31.5t0.5 35.5q0 47 -12.5 74.5t-52.5 34.5q-14 2 -20 2q-46 0 -69 -48t-23 -130h-448v320q220 160 592 160q95 0 188.5 -20.5t170.5 -66t123 -120t46 -177.5v-512q0 -29 5 -48t13 -31t21 -24.5t25 -24.5 v-288h-528v96q-13 -8 -56 -38t-76 -47.5t-85 -30t-119 -12.5q-76 0 -141.5 20.5t-118 65t-85.5 119t-39 179.5zM479 1440l112 304h336l-208 -304h-240zM528 400q0 -82 64 -82q34 0 74 22.5t54 43.5v144q-48 -8 -120 -38t-72 -90z" />
<glyph unicode="&#xe2;" horiz-adv-x="1296" d="M32 352q0 104 50.5 181t126.5 122.5t159 64.5l352 112q0 17 0.5 31.5t0.5 35.5q0 47 -12.5 74.5t-52.5 34.5q-14 2 -20 2q-46 0 -69 -48t-23 -130h-448v320q220 160 592 160q95 0 188.5 -20.5t170.5 -66t123 -120t46 -177.5v-512q0 -29 5 -48t13 -31t21 -24.5t25 -24.5 v-288h-528v96q-13 -8 -56 -38t-76 -47.5t-85 -30t-119 -12.5q-76 0 -141.5 20.5t-118 65t-85.5 119t-39 179.5zM273 1440l240 336h240l240 -336h-272l-80 128l-80 -128h-288zM528 400q0 -82 64 -82q34 0 74 22.5t54 43.5v144q-48 -8 -120 -38t-72 -90z" />
<glyph unicode="&#xe3;" horiz-adv-x="1296" d="M32 352q0 104 50.5 181t126.5 122.5t159 64.5l352 112q0 17 0.5 31.5t0.5 35.5q0 47 -12.5 74.5t-52.5 34.5q-14 2 -20 2q-46 0 -69 -48t-23 -130h-448v320q220 160 592 160q95 0 188.5 -20.5t170.5 -66t123 -120t46 -177.5v-512q0 -29 5 -48t13 -31t21 -24.5t25 -24.5 v-288h-528v96q-13 -8 -56 -38t-76 -47.5t-85 -30t-119 -12.5q-76 0 -141.5 20.5t-118 65t-85.5 119t-39 179.5zM289 1489q11 130 98 201t174 71q34 0 123 -24t127 -24q51 0 70 32h176q0 -65 -33.5 -127.5t-89.5 -103.5t-117 -41q-30 0 -59 6t-84 21t-77.5 21.5t-48.5 6.5 q-48 0 -67 -39h-192zM528 400q0 -82 64 -82q34 0 74 22.5t54 43.5v144q-48 -8 -120 -38t-72 -90z" />
<glyph unicode="&#xe4;" horiz-adv-x="1296" d="M32 352q0 104 50.5 181t126.5 122.5t159 64.5l352 112q0 17 0.5 31.5t0.5 35.5q0 47 -12.5 74.5t-52.5 34.5q-14 2 -20 2q-46 0 -69 -48t-23 -130h-448v320q220 160 592 160q95 0 188.5 -20.5t170.5 -66t123 -120t46 -177.5v-512q0 -29 5 -48t13 -31t21 -24.5t25 -24.5 v-288h-528v96q-13 -8 -56 -38t-76 -47.5t-85 -30t-119 -12.5q-76 0 -141.5 20.5t-118 65t-85.5 119t-39 179.5zM255 1631q0 83 51.5 128.5t122.5 45.5q73 0 125.5 -44.5t52.5 -129.5t-53.5 -135.5t-126.5 -50.5q-70 0 -121 48.5t-51 137.5zM528 400q0 -82 64 -82 q34 0 74 22.5t54 43.5v144q-48 -8 -120 -38t-72 -90zM703 1631q6 80 59.5 124t122.5 44q45 0 83.5 -19t62.5 -57t24 -92q0 -91 -49.5 -141.5t-120.5 -50.5q-69 0 -122.5 50.5t-59.5 141.5z" />
<glyph unicode="&#xe5;" horiz-adv-x="1296" d="M32 352q0 104 50.5 181t126.5 122.5t159 64.5l352 112q0 17 0.5 31.5t0.5 35.5q0 47 -12.5 74.5t-52.5 34.5q-14 2 -20 2q-46 0 -69 -48t-23 -130h-448v320q220 160 592 160q95 0 188.5 -20.5t170.5 -66t123 -120t46 -177.5v-512q0 -29 5 -48t13 -31t21 -24.5t25 -24.5 v-288h-528v96q-13 -8 -56 -38t-76 -47.5t-85 -30t-119 -12.5q-76 0 -141.5 20.5t-118 65t-85.5 119t-39 179.5zM415 1712q4 76 41.5 127t95 77t124.5 26q99 0 172 -56t79 -158q0 -90 -35.5 -153.5t-95 -94t-124.5 -30.5q-103 0 -180 69.5t-77 192.5zM528 400q0 -82 64 -82 q34 0 74 22.5t54 43.5v144q-48 -8 -120 -38t-72 -90zM591 1696q0 -34 23.5 -53t56.5 -19q32 0 56 19t24 53t-23.5 53t-56.5 19q-32 0 -56 -19t-24 -53z" />
<glyph unicode="&#xe6;" horiz-adv-x="1904" d="M26 351q0 125 64 204t160 121.5t268.5 86.5t201.5 53v128q0 67 -71 67q-38 0 -71.5 -20t-33.5 -47v-96h-448v304q62 53 144.5 89.5t172 53t181.5 16.5q74 0 144 -11t127 -32.5t95 -51.5q63 38 170.5 63t227.5 25q136 0 252.5 -37t189 -121.5t72.5 -217.5v-384h-672v-160 q0 -54 27 -82t65 -28q40 0 70 27t30 67v112h480v-352q-114 -76 -257 -117.5t-289 -41.5q-281 0 -446 143q-48 -40 -117.5 -71.5t-150.5 -49t-164 -17.5q-162 0 -276 72.5t-140 225.5q-6 42 -6 79zM528 396q0 -35 32 -62t71 -27q37 0 63 31t26 94v96q-101 -22 -146.5 -57 t-45.5 -75zM1200 832h192q0 91 -19.5 133.5t-76.5 42.5q-55 0 -75.5 -46.5t-20.5 -129.5z" />
<glyph unicode="&#xe7;" horiz-adv-x="1248" d="M80 400v464q0 113 26 193t86 132.5t165.5 79.5t266.5 27q181 0 313.5 -34.5t246.5 -125.5v-336h-448v80q0 64 -13.5 96t-66.5 32q-38 0 -59 -19t-29 -55t-8 -86v-400q0 -62 4 -96.5t21.5 -57t54.5 -22.5q56 0 76 40t20 120v112h448v-400q-97 -97 -245.5 -136.5 t-298.5 -39.5v-48h48q35 0 49.5 -23t14.5 -73v-192q0 -71 -25.5 -92t-80.5 -21q-13 0 -24 0.5t-30 0.5h-160v176h144v112q-48 0 -72 10.5t-24 53.5v112q-118 20 -203 57.5t-141 123.5t-56 235z" />
<glyph unicode="&#xe8;" horiz-adv-x="1248" d="M64 400v480q0 171 65.5 265.5t190.5 130.5t320 36q247 0 403.5 -84.5t156.5 -283.5v-400h-656v-128q0 -64 24.5 -97t58.5 -33q31 0 54 26t23 72v96h496v-336q-41 -41 -136.5 -81.5t-219 -67.5t-236.5 -27q-180 8 -301 53t-182 137.5t-61 241.5zM399 1760h352l112 -336 h-240zM544 832h192q0 91 -19.5 133.5t-76.5 42.5t-76.5 -42.5t-19.5 -133.5z" />
<glyph unicode="&#xe9;" horiz-adv-x="1248" d="M64 400v480q0 171 65.5 265.5t190.5 130.5t320 36q247 0 403.5 -84.5t156.5 -283.5v-400h-656v-128q0 -64 24.5 -97t58.5 -33q31 0 54 26t23 72v96h496v-336q-41 -41 -136.5 -81.5t-219 -67.5t-236.5 -27q-180 8 -301 53t-182 137.5t-61 241.5zM465 1440l112 304h336 l-208 -304h-240zM544 832h192q0 91 -19.5 133.5t-76.5 42.5t-76.5 -42.5t-19.5 -133.5z" />
<glyph unicode="&#xea;" horiz-adv-x="1248" d="M64 400v480q0 171 65.5 265.5t190.5 130.5t320 36q247 0 403.5 -84.5t156.5 -283.5v-400h-656v-128q0 -64 24.5 -97t58.5 -33q31 0 54 26t23 72v96h496v-336q-41 -41 -136.5 -81.5t-219 -67.5t-236.5 -27q-180 8 -301 53t-182 137.5t-61 241.5zM273 1440l240 336h240 l240 -336h-272l-80 128l-80 -128h-288zM544 832h192q0 91 -19.5 133.5t-76.5 42.5t-76.5 -42.5t-19.5 -133.5z" />
<glyph unicode="&#xeb;" horiz-adv-x="1248" d="M64 400v480q0 171 65.5 265.5t190.5 130.5t320 36q247 0 403.5 -84.5t156.5 -283.5v-400h-656v-128q0 -64 24.5 -97t58.5 -33q31 0 54 26t23 72v96h496v-336q-41 -41 -136.5 -81.5t-219 -67.5t-236.5 -27q-180 8 -301 53t-182 137.5t-61 241.5zM255 1631q0 83 51.5 128.5 t122.5 45.5q73 0 125.5 -44.5t52.5 -129.5t-53.5 -135.5t-126.5 -50.5q-70 0 -121 48.5t-51 137.5zM544 832h192q0 91 -19.5 133.5t-76.5 42.5t-76.5 -42.5t-19.5 -133.5zM703 1631q6 80 59.5 124t122.5 44q45 0 83.5 -19t62.5 -57t24 -92q0 -91 -49.5 -141.5t-120.5 -50.5 q-69 0 -122.5 50.5t-59.5 141.5z" />
<glyph unicode="&#xec;" horiz-adv-x="689" d="M32 0v288q42 21 53 62.5t11 97.5v336q0 96 -10.5 146.5t-53.5 61.5v304h544v-816q0 -60 3 -92.5t17.5 -58.5t43.5 -41v-288h-608zM113 1776h352l112 -336h-240z" />
<glyph unicode="&#xed;" horiz-adv-x="689" d="M32 0v288q42 21 53 62.5t11 97.5v336q0 96 -10.5 146.5t-53.5 61.5v304h544v-816q0 -60 3 -92.5t17.5 -58.5t43.5 -41v-288h-608zM192 1440l112 304h336l-208 -304h-240z" />
<glyph unicode="&#xee;" horiz-adv-x="687" d="M32 0v288q42 21 53 62.5t11 97.5v336q0 96 -10.5 146.5t-53.5 61.5v304h544v-816q0 -60 3 -92.5t17.5 -58.5t43.5 -41v-288h-608zM47 1456l240 336h240l240 -336h-272l-80 128l-80 -128h-288z" />
<glyph unicode="&#xef;" horiz-adv-x="688" d="M-17 1631q0 83 51.5 128.5t122.5 45.5q73 0 125.5 -44.5t52.5 -129.5t-53.5 -135.5t-126.5 -50.5q-70 0 -121 48.5t-51 137.5zM32 0v288q42 21 53 62.5t11 97.5v336q0 96 -10.5 146.5t-53.5 61.5v304h544v-816q0 -60 3 -92.5t17.5 -58.5t43.5 -41v-288h-608zM431 1631 q6 80 59.5 124t122.5 44q45 0 83.5 -19t62.5 -57t24 -92q0 -91 -49.5 -141.5t-120.5 -50.5q-69 0 -122.5 50.5t-59.5 141.5z" />
<glyph unicode="&#xf1;" horiz-adv-x="1376" d="M48 0v304q43 21 53.5 58.5t10.5 101.5v384q0 107 -64 128v304h560v-48q74 53 147 66.5t173 13.5q152 0 230.5 -61.5t100 -135t21.5 -139.5v-512q0 -73 14 -112.5t50 -63.5v-288h-544q-11 127 -13.5 213.5t-2.5 186.5v400q0 61 -29 105t-79 44q-30 0 -68 -21v-480 q0 -101 64 -144v-304h-624zM319 1440q11 130 98 201t174 71q34 0 123 -24t127 -24q51 0 70 32h176q0 -65 -33.5 -127.5t-89.5 -103.5t-117 -41q-30 0 -59 6t-84 21t-77.5 21.5t-48.5 6.5q-48 0 -67 -39h-192z" />
<glyph unicode="&#xf2;" horiz-adv-x="1248" d="M48 448v448q0 155 54 244.5t178.5 130.5t343.5 41q218 0 343 -37.5t179 -127t54 -251.5v-480q0 -136 -35.5 -221.5t-105.5 -130.5t-174.5 -62.5t-260.5 -17.5q-154 0 -258.5 19.5t-175.5 70t-106.5 141t-35.5 233.5zM416 1760h352l112 -336h-240zM528 416q0 -62 28.5 -97 t67.5 -35q25 0 46.5 15t35.5 44.5t14 72.5v496q0 35 -14 60.5t-35 38.5t-47 13q-39 0 -67.5 -33t-28.5 -95v-480z" />
<glyph unicode="&#xf3;" horiz-adv-x="1248" d="M48 448v448q0 155 54 244.5t178.5 130.5t343.5 41q218 0 343 -37.5t179 -127t54 -251.5v-480q0 -136 -35.5 -221.5t-105.5 -130.5t-174.5 -62.5t-260.5 -17.5q-154 0 -258.5 19.5t-175.5 70t-106.5 141t-35.5 233.5zM495 1440l112 304h336l-208 -304h-240zM528 416 q0 -62 28.5 -97t67.5 -35q25 0 46.5 15t35.5 44.5t14 72.5v496q0 35 -14 60.5t-35 38.5t-47 13q-39 0 -67.5 -33t-28.5 -95v-480z" />
<glyph unicode="&#xf4;" horiz-adv-x="1248" d="M48 448v448q0 155 54 244.5t178.5 130.5t343.5 41q218 0 343 -37.5t179 -127t54 -251.5v-480q0 -136 -35.5 -221.5t-105.5 -130.5t-174.5 -62.5t-260.5 -17.5q-154 0 -258.5 19.5t-175.5 70t-106.5 141t-35.5 233.5zM320 1440l240 336h240l240 -336h-272l-80 128 l-80 -128h-288zM528 416q0 -62 28.5 -97t67.5 -35q25 0 46.5 15t35.5 44.5t14 72.5v496q0 35 -14 60.5t-35 38.5t-47 13q-39 0 -67.5 -33t-28.5 -95v-480z" />
<glyph unicode="&#xf5;" horiz-adv-x="1248" d="M48 448v448q0 155 54 244.5t178.5 130.5t343.5 41q218 0 343 -37.5t179 -127t54 -251.5v-480q0 -136 -35.5 -221.5t-105.5 -130.5t-174.5 -62.5t-260.5 -17.5q-154 0 -258.5 19.5t-175.5 70t-106.5 141t-35.5 233.5zM272 1503q11 130 98 201t174 71q34 0 123 -24t127 -24 q51 0 70 32h176q0 -65 -33.5 -127.5t-89.5 -103.5t-117 -41q-30 0 -59 6t-84 21t-77.5 21.5t-48.5 6.5q-48 0 -67 -39h-192zM528 416q0 -62 28.5 -97t67.5 -35q25 0 46.5 15t35.5 44.5t14 72.5v496q0 35 -14 60.5t-35 38.5t-47 13q-39 0 -67.5 -33t-28.5 -95v-480z" />
<glyph unicode="&#xf6;" horiz-adv-x="1248" d="M48 448v448q0 155 54 244.5t178.5 130.5t343.5 41q218 0 343 -37.5t179 -127t54 -251.5v-480q0 -136 -35.5 -221.5t-105.5 -130.5t-174.5 -62.5t-260.5 -17.5q-154 0 -258.5 19.5t-175.5 70t-106.5 141t-35.5 233.5zM239 1617q0 83 51.5 128.5t122.5 45.5 q73 0 125.5 -44.5t52.5 -129.5t-53.5 -135.5t-126.5 -50.5q-70 0 -121 48.5t-51 137.5zM528 416q0 -62 28.5 -97t67.5 -35q25 0 46.5 15t35.5 44.5t14 72.5v496q0 35 -14 60.5t-35 38.5t-47 13q-39 0 -67.5 -33t-28.5 -95v-480zM687 1617q6 80 59.5 124t122.5 44 q45 0 83.5 -19t62.5 -57t24 -92q0 -91 -49.5 -141.5t-120.5 -50.5q-69 0 -122.5 50.5t-59.5 141.5z" />
<glyph unicode="&#xf8;" horiz-adv-x="1248" d="M16 112l80 96q-35 23 -35 134q1 31 2 67.5t1 54.5v400q0 428 509 428q88 0 323 -28l112 128l256 -192l-96 -128q48 -24 48 -192v-512q0 -138 -74.5 -225t-197.5 -124.5t-269 -37.5q-154 0 -307 35l-96 -112zM544 416q0 -68 26 -106t62 -38q35 0 61.5 38t26.5 106v480 q0 31 -11.5 55.5t-31.5 35.5t-41 11q-23 0 -44.5 -12t-34.5 -34.5t-13 -55.5v-480z" />
<glyph unicode="&#xf9;" horiz-adv-x="1328" d="M16 1008v272h512q48 -48 48 -160v-544q0 -119 16.5 -183.5t68.5 -64.5q33 0 75 24v528q0 48 -14 76t-50 52v272h560v-832q0 -62 14.5 -99.5t49.5 -60.5v-288h-560v64q-17 -17 -58.5 -35.5t-100.5 -31.5t-129 -13q-107 0 -179 24.5t-112.5 73t-58.5 122.5t-18 180v480 q0 59 -13.5 89.5t-50.5 54.5zM416 1744h352l112 -336h-240z" />
<glyph unicode="&#xfa;" horiz-adv-x="1328" d="M16 1008v272h512q48 -48 48 -160v-544q0 -119 16.5 -183.5t68.5 -64.5q33 0 75 24v528q0 48 -14 76t-50 52v272h560v-832q0 -62 14.5 -99.5t49.5 -60.5v-288h-560v64q-17 -17 -58.5 -35.5t-100.5 -31.5t-129 -13q-107 0 -179 24.5t-112.5 73t-58.5 122.5t-18 180v480 q0 59 -13.5 89.5t-50.5 54.5zM495 1408l112 304h336l-208 -304h-240z" />
<glyph unicode="&#xfb;" horiz-adv-x="1328" d="M16 1008v272h512q48 -48 48 -160v-544q0 -119 16.5 -183.5t68.5 -64.5q33 0 75 24v528q0 48 -14 76t-50 52v272h560v-832q0 -62 14.5 -99.5t49.5 -60.5v-288h-560v64q-17 -17 -58.5 -35.5t-100.5 -31.5t-129 -13q-107 0 -179 24.5t-112.5 73t-58.5 122.5t-18 180v480 q0 59 -13.5 89.5t-50.5 54.5zM303 1407l240 336h240l240 -336h-272l-80 128l-80 -128h-288z" />
<glyph unicode="&#xfc;" horiz-adv-x="1328" d="M16 1008v272h512q48 -48 48 -160v-544q0 -119 16.5 -183.5t68.5 -64.5q33 0 75 24v528q0 48 -14 76t-50 52v272h560v-832q0 -62 14.5 -99.5t49.5 -60.5v-288h-560v64q-17 -17 -58.5 -35.5t-100.5 -31.5t-129 -13q-107 0 -179 24.5t-112.5 73t-58.5 122.5t-18 180v480 q0 59 -13.5 89.5t-50.5 54.5zM239 1584q0 83 51.5 128.5t122.5 45.5q73 0 125.5 -44.5t52.5 -129.5t-53.5 -135.5t-126.5 -50.5q-70 0 -121 48.5t-51 137.5zM687 1584q6 80 59.5 124t122.5 44q45 0 83.5 -19t62.5 -57t24 -92q0 -91 -49.5 -141.5t-120.5 -50.5 q-69 0 -122.5 50.5t-59.5 141.5z" />
<glyph unicode="&#xff;" horiz-adv-x="1248" d="M16 992v288h640v-288q-52 -9 -52 -60q0 -24 16.5 -82t19.5 -82l64 -208l48 208q3 16 15.5 62.5t16.5 64.5t4 37q0 51 -52 60v288h544v-288q-29 -22 -47.5 -61t-33 -88.5t-31.5 -106.5l-256 -800q-46 -144 -74.5 -208t-73.5 -104.5t-124 -71.5q-78 -29 -183 -29 q-69 0 -130.5 12.5t-102.5 32.5v288q160 0 192 128l-240 672q-28 86 -42 132.5t-32.5 91t-37.5 70t-48 42.5zM272 1600q0 83 51.5 128.5t122.5 45.5q73 0 125.5 -44.5t52.5 -129.5t-53.5 -135.5t-126.5 -50.5q-70 0 -121 48.5t-51 137.5zM720 1600q6 80 59.5 124t122.5 44 q45 0 83.5 -19t62.5 -57t24 -92q0 -91 -49.5 -141.5t-120.5 -50.5q-69 0 -122.5 50.5t-59.5 141.5z" />
<glyph unicode="&#x152;" horiz-adv-x="2112" d="M64 480v752q0 214 92 339.5t231 173.5t299 48q65 0 137.5 -8.5t119 -19.5t65.5 -21h1040v-576h-496v112q0 63 -52 79.5t-140 16.5v-304h368v-320h-368v-384q95 0 143.5 22.5t48.5 89.5v176h496v-656h-1088q-93 -38 -236 -38q-116 0 -229.5 28t-213 90t-158.5 162t-59 238 zM608 512q0 -74 30.5 -115t73.5 -41q42 0 73 41.5t31 114.5v768q0 62 -29.5 94t-70.5 32q-42 0 -75 -34t-33 -92v-768z" />
<glyph unicode="&#x153;" horiz-adv-x="1904" d="M48 368v480q0 260 148 361.5t378 101.5q56 0 128 -6.5t120 -13.5t86.5 -13.5t83.5 -13.5q187 37 341 37q155 0 273.5 -40.5t184 -128t65.5 -220.5v-384h-656v-176q0 -40 25.5 -60t62.5 -20q35 0 61.5 18t26.5 46v112h480v-320q-34 -50 -119.5 -86.5t-200.5 -55.5 t-238 -19q-97 0 -186 12t-168 37q-66 -22 -152.5 -35t-172.5 -13q-237 0 -404 96.5t-167 303.5zM528 416q0 -67 29.5 -106.5t69.5 -39.5q38 0 65.5 34t27.5 96v496q0 53 -25.5 80.5t-62.5 27.5q-40 0 -72 -29.5t-32 -78.5v-480zM1215 869q0 -16 0.5 -30t0.5 -39h176 q0 20 0.5 36.5t0.5 40.5q0 61 -15.5 88t-65.5 27q-61 0 -79 -30t-18 -93z" />
<glyph unicode="&#x2c6;" horiz-adv-x="1056" d="M160 1440l240 336h240l240 -336h-272l-80 128l-80 -128h-288z" />
<glyph unicode="&#x2dc;" horiz-adv-x="1056" d="M176 1456q11 130 98 201t174 71q34 0 123 -24t127 -24q51 0 70 32h176q0 -65 -33.5 -127.5t-89.5 -103.5t-117 -41q-30 0 -59 6t-84 21t-77.5 21.5t-48.5 6.5q-48 0 -67 -39h-192z" />
<glyph unicode="&#x2000;" horiz-adv-x="1202" />
<glyph unicode="&#x2001;" horiz-adv-x="2405" />
<glyph unicode="&#x2002;" horiz-adv-x="1202" />
<glyph unicode="&#x2003;" horiz-adv-x="2405" />
<glyph unicode="&#x2004;" horiz-adv-x="801" />
<glyph unicode="&#x2005;" horiz-adv-x="601" />
<glyph unicode="&#x2006;" horiz-adv-x="400" />
<glyph unicode="&#x2007;" horiz-adv-x="400" />
<glyph unicode="&#x2008;" horiz-adv-x="300" />
<glyph unicode="&#x2009;" horiz-adv-x="481" />
<glyph unicode="&#x200a;" horiz-adv-x="133" />
<glyph unicode="&#x2010;" horiz-adv-x="688" d="M0 480v416h688v-416h-688z" />
<glyph unicode="&#x2011;" horiz-adv-x="688" d="M0 480v416h688v-416h-688z" />
<glyph unicode="&#x2012;" horiz-adv-x="688" d="M0 480v416h688v-416h-688z" />
<glyph unicode="&#x2013;" horiz-adv-x="1008" d="M0 480v416h1024v-416h-1024z" />
<glyph unicode="&#x2014;" horiz-adv-x="2032" d="M16 464v416h2032v-416h-2032z" />
<glyph unicode="&#x2018;" horiz-adv-x="688" d="M126 1353q0 101 50 183q39 64 111 143t129 113l96 -80q-80 -80 -144 -208q55 0 98.5 -25t68.5 -72.5t25 -110.5q0 -83 -61 -137.5t-147 -54.5q-113 9 -169.5 79t-56.5 170z" />
<glyph unicode="&#x201c;" horiz-adv-x="1216" d="M126 1353q0 101 50 183q39 64 111 143t129 113l96 -80q-80 -80 -144 -208q55 0 98.5 -25t68.5 -72.5t25 -110.5q0 -83 -61 -137.5t-147 -54.5q-113 9 -169.5 79t-56.5 170zM670 1353q0 101 50 183q39 64 111 143t129 113l96 -80q-80 -80 -144 -208q55 0 98.5 -25 t68.5 -72.5t25 -110.5q0 -83 -61 -137.5t-147 -54.5q-113 9 -169.5 79t-56.5 170z" />
<glyph unicode="&#x201d;" horiz-adv-x="1216" d="M138 1572q0 78 52 133t146 55q114 0 174.5 -63.5t60.5 -165.5q0 -85 -43 -171q-38 -76 -99 -143t-141 -113l-96 80q64 64 98.5 106.5t45.5 85.5q-91 0 -144.5 59t-53.5 137zM682 1572q0 78 52 133t146 55q114 0 174.5 -63.5t60.5 -165.5q0 -85 -43 -171q-38 -76 -99 -143 t-141 -113l-96 80q64 64 98.5 106.5t45.5 85.5q-91 0 -144.5 59t-53.5 137z" />
<glyph unicode="&#x201e;" horiz-adv-x="1216" d="M122 196q0 78 52 133t146 55q114 0 174.5 -63.5t60.5 -165.5q0 -85 -43 -171q-38 -76 -99 -143t-141 -113l-96 80q64 64 98.5 106.5t45.5 85.5q-91 0 -144.5 59t-53.5 137zM650 196q0 78 52 133t146 55q114 0 174.5 -63.5t60.5 -165.5q0 -85 -43 -171q-38 -76 -99 -143 t-141 -113l-96 80q64 64 98.5 106.5t45.5 85.5q-91 0 -144.5 59t-53.5 137z" />
<glyph unicode="&#x2022;" horiz-adv-x="751" d="M112 640q0 53 18.5 97t53 77t77.5 49.5t91 16.5q102 0 171 -62.5t69 -177.5q0 -75 -35.5 -130t-91.5 -82.5t-113 -27.5q-93 0 -166.5 64t-73.5 176z" />
<glyph unicode="&#x2026;" horiz-adv-x="2031" d="M96 192q0 53 18.5 97t53 77t77.5 49.5t91 16.5q102 0 171 -62.5t69 -177.5q0 -75 -35.5 -130t-91.5 -82.5t-113 -27.5q-93 0 -166.5 64t-73.5 176zM784 192q0 53 18.5 97t53 77t77.5 49.5t91 16.5q102 0 171 -62.5t69 -177.5q0 -75 -35.5 -130t-91.5 -82.5t-113 -27.5 q-93 0 -166.5 64t-73.5 176zM1472 192q0 53 18.5 97t53 77t77.5 49.5t91 16.5q102 0 171 -62.5t69 -177.5q0 -75 -35.5 -130t-91.5 -82.5t-113 -27.5q-93 0 -166.5 64t-73.5 176z" />
<glyph unicode="&#x202f;" horiz-adv-x="481" />
<glyph unicode="&#x2039;" horiz-adv-x="688" d="M128 704l176 336h288l-176 -352l176 -320h-288z" />
<glyph unicode="&#x203a;" horiz-adv-x="688" d="M96 336l176 368l-176 336h288l176 -352l-176 -352h-288z" />
<glyph unicode="&#x205f;" horiz-adv-x="601" />
<glyph unicode="&#x2122;" horiz-adv-x="1808" d="M64 1584v192h704v-192h-240v-640h-224v640h-240zM864 944v832h336l144 -416l128 416h336v-832h-224v560l-192 -560h-112l-192 576v-576h-224z" />
<glyph unicode="&#x25fc;" horiz-adv-x="1280" d="M0 0v1280h1280v-1280h-1280z" />
</font>
</defs>
</svg>
